Новый волшебный мир / Kotha Bangaru Lokam (Шрикант Аддала / Srikanth Addala) [2008, Индия, Мелодрама, DVDRip] MVO (Red Media) + Sub rus (песни)

Ответить на тему
 
Автор Сообщение

user ®

Стаж: 12 лет

Сообщений: 15092

Пост Пост: #1 от 29-Мар-2014 02:00

[Цитировать]

Новый волшебный мир / Kotha Bangaru Lokam
-Страна: Индия
Жанр: Мелодрама
Год выпуска: 2008
Продолжительность: 02:35:36-Перевод: Профессиональный (многоголосый закадровый) - Red Media [Индия ТВ]
Субтитры: Есть (только песни) [пер. koko а.к.а. kokoshechka]--Режиссер: Шрикант Аддала / Srikanth Addala-В ролях: Варун Сандеш, Швета Прасад, Пракаш Радж, Брахманандам, Рао Рамеш--Описание: Есть в жизни моменты и чувства, которые не вырвать из сердца. Родители - самые любящие люди. Они с самого детства оберегают нас, заботятся, ведут по дорогам жизни. Им несомненно хочется видеть нас счастливыми...
Любовь - всепоглощающее чувство, перед которым становишься неуправляемым. Порой юношеский максимализм заслоняет пеленой взгляд на простые истины. И часто бывает слишком поздно, чтобы осознать и выбрать верный путь. Но если это озарение все же происходит, в душе расцветает весна! Все дороги в жизни мы выбираем сами, стоит постараться ради того, чтобы обрести Новый Волшебный Мир....под названием любовь... (с) kokoshechka-Доп. информация: Фильм на языке телугу-- | --Качество видео: DVDRip
Исходник: DVD9 R1
Формат видео: AVI-Видео: 688x288 (2.39:1), 23.976 fps, XviD build 50 ~1204 kbps avg, 0.25 bit/pixel
Аудио: 48 kHz, MPEG Layer 3, 2 ch, ~128.00 kbps--Сэмпл / Sample--Перевод субтитров: koko а.к.а. kokoshechka (спасибо!)
Сведение звука: The_Mummy
Риппер: soso4eg-- --

Скриншот с названием:


-

Скриншоты:


-

MediaInfo:

Общее
Полное имя : K:\Релизы\Novyi.Volshebnyi.Mir.2008.DVDRip.XviD-soso4eg.avi
Формат : AVI
Формат/Информация : Audio Video Interleave
Размер файла : 1,46 Гбайт
Продолжительность : 2 ч. 35 м.
Общий поток : 1342 Кбит/сек
Название фильма :
Программа кодирования : VirtualDubMod 1.5.10.3 | www.virtualdub-fr.org || (build 2550/release)
Видео
Идентификатор : 0
Формат : MPEG-4 Visual
Профиль формата : Advanced Simple@L5
Параметр BVOP формата : 1
Параметр QPel формата : Нет
Параметр GMC формата : Без точки перехода
Параметр матрицы формата : Default (H.263)
Идентификатор кодека : XVID
Идентификатор кодека/Подсказка : XviD
Продолжительность : 2 ч. 35 м.
Битрейт : 1205 Кбит/сек
Ширина : 688 пикселей
Высота : 288 пикселей
Соотношение сторон : 2,40:1
Частота кадров : 23,976 кадра/сек
Цветовое пространство : YUV
Субдискретизация насыщенности : 4:2:0
Битовая глубина : 8 бит
Тип развёртки : Прогрессивная
Метод сжатия : С потерями
Бит/(Пиксели*Кадры) : 0.254
Размер потока : 1,31 Гбайт (90%)
Библиотека кодирования : XviD 1.2.1 (UTC 2008-12-04)
Аудио
Идентификатор : 1
Формат : MPEG Audio
Версия формата : Version 1
Профиль формата : Layer 3
Идентификатор кодека : 55
Идентификатор кодека/Подсказка : MP3
Продолжительность : 2 ч. 35 м.
Вид битрейта : Постоянный
Битрейт : 128 Кбит/сек
Каналы : 2 канала
Частота : 48,0 КГц
Метод сжатия : С потерями
Размер потока : 142 Мбайт (10%)
Выравнивание : Соединение по промежуткам
Продолжительность промежутка : 42 мс. (1,00 видеокадр)
Время предзагрузки промежутка : 504 мс.
Библиотека кодирования : LAME3.98r
Настройки программы : -m s -V 4 -q 2 -lowpass 17 -b 128
Скачать

Скачать торрент! Новый волшебный мир / Kotha Bangaru Lokam (Шрикант Аддала / Srikanth Addala) [2008, Индия, Мелодрама, DVDRip] MVO (Red Media) + Sub rus (песни)

Как скачивать? · Что такое торрент? · Рейтинг и ограничения

Сайт не распространяет и не хранит электронные версии произведений, а лишь предоставляет доступ к создаваемому пользователями каталогу ссылок на торрент-файлы, которые содержат только списки хеш-сумм

[Профиль] [ЛС]
Показать сообщения:    
Ответить на тему

Текущее время: Сегодня 12:05

Часовой пояс: GMT + 4



Вы не можете начинать темы
Вы не можете отвечать на сообщения
Вы не можете редактировать свои сообщения
Вы не можете удалять свои сообщения
Вы не можете голосовать в опросах
Вы не можете прикреплять файлы к сообщениям
Вы не можете скачивать файлы