Каратистка / Karate Girl (Ёшикатсу Кимура / Yoshikatsu Kimura) [2011, Япония, боевые искусства, DVDRip] VO (Виктор Береговых)

Ответить на тему
 
Автор Сообщение

user ®

Стаж: 11 лет

Сообщений: 15151

Пост Пост: #1 от 27-Мар-2014 18:20

[Цитировать]

Каратистка / Karate Girl
Страна: Япония
Жанр: боевые искусства
Год выпуска: 2011
Продолжительность: 01:30:32
Перевод: Одноголосый закадровый (Виктор Береговых)
Cубтитры: нет
Режиссер: Ёшикатсу Кимура / Yoshikatsu Kimura
В ролях: Рина Такеда, Хина Тобиматсу, Тацуя Нака, Казутоши Ёкояма, Ричард Хезельтон, Киёдзи Амано, Кеисуке Хорибе, Норико Ирияма, Тацуя Мори
Описание: Шу Тагава хочет доминировать в мире боевых искусств.Он нападает на семью Татсуи Куренаи с целью забрать легендарный черный пояс, принадлежащий предку Татсуи, знаменитому мастеру Соджиро.Тагава убивает Татсуи, его старшую дочь, забирает пояс и похищает младшую дочь.Спустя 10 лет Тагава узнает,что пояс,который он похитил,фальшивый.Все эти годы он тренировал похищенную девочку в надежде сделать из нее совершенную убийцу.Тагава узнает, что старшая дочь Татсуи выжила и понимает,что настоящий черный пояс у нее.Он посылает к ней младшую сестру, которая забыла свое прошлое и для которой невыполнение задания означает смерть...(В.Береговых)
Сэмпл: http://www.sendspace.com/file/xfhy01
Качество видео: DVDRip
Формат видео: AVI
Видео: XviD, 720x416 (16:9), 23.976 fps, 1781 kbps avg, 0.248 bit/pixel
Аудио: AC3, 48.0 KHz, 192 Kbps, 2 channels (русский)
Аудио 2: AC3, 48.0 KHz, 192 Kbps, 2 channels (японский)
Релиз форума Tavernaclub

MediaInfo

General
Complete name : C:\Каратистка\Каратистка.avi
Format : AVI
Format/Info : Audio Video Interleave
File size : 1.39 GiB
Duration : 1h 31mn
Overall bit rate : 2 179 Kbps
Writing application : VirtualDubMod 1.5.10.2 (build 2540/release)
Writing library : VirtualDubMod build 2540/release
Video
ID : 0
Format : MPEG-4 Visual
Format profile : AdvancedSimple@L5
Format settings, BVOP : No
Format settings, QPel : No
Format settings, GMC : No warppoints
Format settings, Matrix : Custom
Codec ID : XVID
Codec ID/Hint : XviD
Duration : 1h 31mn
Bit rate : 1 781 Kbps
Width : 720 pixels
Height : 416 pixels
Display aspect ratio : 16:9
Frame rate : 23.976 fps
Resolution : 24 bits
Colorimetry : 4:2:0
Scan type : Progressive
Bits/(Pixel*Frame) : 0.248
Stream size : 1.14 GiB (82%)
Writing library : XviD 1.2.0.dev47 (UTC 2006-11-01)
Audio #1
ID : 1
Format : AC-3
Format/Info : Audio Coding 3
Codec ID : 2000
Duration : 1h 31mn
Bit rate mode : Constant
Bit rate : 192 Kbps
Channel(s) : 2 channels
Channel positions : L R
Sampling rate : 48.0 KHz
Video delay : 16ms
Stream size : 126 MiB (9%)
Alignment : Split accross interleaves
Interleave, duration : 42 ms (1.00 video frame)
Interleave, preload duration : 500 ms
Language : Russian
Audio #2
ID : 2
Format : AC-3
Format/Info : Audio Coding 3
Codec ID : 2000
Duration : 1h 31mn
Bit rate mode : Constant
Bit rate : 192 Kbps
Channel(s) : 2 channels
Channel positions : L R
Sampling rate : 48.0 KHz
Stream size : 126 MiB (9%)
Alignment : Split accross interleaves
Interleave, duration : 42 ms (1.00 video frame)
Interleave, preload duration : 500 ms

Скриншот c названием фильма

Скриншоты

Скачать

Скачать торрент! Каратистка / Karate Girl (Ёшикатсу Кимура / Yoshikatsu Kimura) [2011, Япония, боевые искусства, DVDRip] VO (Виктор Береговых)

Как скачивать? · Что такое торрент? · Рейтинг и ограничения

Сайт не распространяет и не хранит электронные версии произведений, а лишь предоставляет доступ к создаваемому пользователями каталогу ссылок на торрент-файлы, которые содержат только списки хеш-сумм

[Профиль] [ЛС]
Показать сообщения:    
Ответить на тему

Текущее время: Сегодня 20:30

Часовой пояс: GMT + 4



Вы не можете начинать темы
Вы не можете отвечать на сообщения
Вы не можете редактировать свои сообщения
Вы не можете удалять свои сообщения
Вы не можете голосовать в опросах
Вы не можете прикреплять файлы к сообщениям
Вы не можете скачивать файлы