Время не ждет (Виталий Четвериков) [1975, экранизация, приключения, SATRip]

Ответить на тему
 
Автор Сообщение

user ®

Стаж: 7 лет 7 месяцев

Сообщений: 20008

Пост Пост: #1 от 25-Мар-2014 17:20

[Цитировать]

Время не ждет
Жанр: экранизация, приключения
Год выпуска: 1975
Продолжительность: 01:15:51 + 01:17:26-Режиссёр: Виталий Четвериков-В ролях: Юозас Будрайтис, Михаил Матвеев, Викторас Плют, Вайва Майнялите, Ольга Барнет, Феликс Эйнас, Владимир Волчик, Николай Кузьмин, Борис Владомирский, Павел Кашлаков, Харий Швейц, Дмитрий Капка, Улдис Лиелдидж, Вацлав Дворжецкий, Аркадий Пышняк, Освальд Берзиньш, Эммануил Виторган-Описание:
По одноименному роману Джека Лондона.
Это история золотоискателя и авантюриста Элама Харниша по прозвищу Время-не-ждет, он «по натуре был игрок, и жизнь представлялась ему увлекательнейшей игрой». В ходе этой игры за богатство и власть он становится циничным и бессердечным. Став преуспевающим дельцом, он живет и действует по законам джунглей. Перемена в нем происходит после знакомства со стенографисткой Дид Мэсон...-Качество видео: SATRip
Формат видео: AVI
Видео: 704x528 (1.33:1), 29.970 fps, DivX Codec 5.x or 6.x ~2348 kbps avg, 0.21 bit/pixel
Аудио: 44.100 kHz, MPEG Layer 3, 2 ch, ~192.00 kbps avg

MediaInfo

Format : AVI
Format/Info : Audio Video Interleave
Format profile : OpenDML
File size : 1.35 GiB
Duration : 1h 15mn
Overall bit rate : 2 549 Kbps
Video
ID : 0
Format : MPEG-4 Visual
Format profile : Simple@L1
Format settings, BVOP : No
Format settings, QPel : No
Format settings, GMC : No warppoints
Format settings, Matrix : Default (H.263)
Codec ID : DX50
Codec ID/Hint : DivX 5
Duration : 1h 15mn
Bit rate : 2 341 Kbps
Width : 704 pixels
Height : 528 pixels
Display aspect ratio : 4:3
Frame rate : 29.970 fps
Color space : YUV
Chroma subsampling : 4:2:0
Bit depth : 8 bits
Scan type : Progressive
Compression mode : Lossy
Bits/(Pixel*Frame) : 0.210
Stream size : 1.24 GiB (92%)
Audio
ID : 1
Format : MPEG Audio
Format version : Version 1
Format profile : Layer 3
Mode : Joint stereo
Mode extension : MS Stereo
Codec ID : 55
Codec ID/Hint : MP3
Duration : 1h 15mn
Bit rate mode : Constant
Bit rate : 192 Kbps
Channel(s) : 2 channels
Sampling rate : 44.1 KHz
Compression mode : Lossy
Stream size : 26.6 MiB (2%)
Alignment : Aligned on interleaves
Interleave, duration : 102 ms (3.07 video frames)
Writing library : LAME3.98.2

Скриншот c названием фильма

Скриншоты

Скачать

Скачать торрент!

Как скачивать? · Что такое торрент? · Рейтинг и ограничения

Сайт не распространяет и не хранит электронные версии произведений, а лишь предоставляет доступ к создаваемому пользователями каталогу ссылок на торрент-файлы, которые содержат только списки хеш-сумм

[Профиль] [ЛС]
Показать сообщения:    
Ответить на тему

Текущее время: Сегодня 09:51

Часовой пояс: GMT + 4



Вы не можете начинать темы
Вы не можете отвечать на сообщения
Вы не можете редактировать свои сообщения
Вы не можете удалять свои сообщения
Вы не можете голосовать в опросах
Вы не можете прикреплять файлы к сообщениям
Вы не можете скачивать файлы