Отдам жену в хорошие руки (Дмитрий Брусникин) [2012, Мелодрама, SATRip]

Ответить на тему
 
Автор Сообщение

user ®

Стаж: 7 лет 7 месяцев

Сообщений: 20008

Пост Пост: #1 от 23-Мар-2014 17:30

[Цитировать]

Отдам жену в хорошие руки
Жанр: Мелодрама
Год выпуска: 2012
Продолжительность: 1:30:05
Режиссёр: Дмитрий Брусникин
В ролях: Григорий Антипенко, Александра Урсуляк, Серафима Низовская, Валерий Трошин, Кристина Бабушкина, Борис Дьяченко, Дарья Калмыкова, Евгений Джураев
Описание: Жизнь удалась – так можно оценить профессиональные и семейные высоты, которых достиг наш герой Женя в свои неполные 40 лет. Любимая работа, умница жена, чудесная дочь. Все рухнуло и потеряло ценность в один миг, виной всему наваждение, страсть, безумие, выхода из которого, кажется, нет. У наваждения есть имя – красавица Ирина, одинокая учительница музыки, которая готова ответить Жене взаимностью. После долгих терзаний и попыток бороться с собой Женя бросается в омут страсти с головой. Но, как известно, за удовольствием следует расплата, и придет тот день, когда героям придется сделать решающий выбор.
Сэмпл: http://multi-up.com/961295
Качество видео: SATRip
Формат видео: AVI
Видео: XviD , 720x384 (1.88:1) , 25 fps , 2109 kbps avg
Аудио: AC3 , 48 kHz , 192.00 kbps avg , 2/0 (L,R) ch

MediaInfo

Complete name Отдам жену в хорошие руки 2012.avi
Format : AVI
Format/Info : Audio Video Interleave
File size : 1.45 GiB
Duration : 1h 30mn
Overall bit rate : 2 312 Kbps
Writing library : VirtualDub build 35390/release
Video
ID : 0
Format : MPEG-4 Visual
Format profile : Advanced Simple@L5
Format settings, BVOP : 1
Format settings, QPel : No
Format settings, GMC : No warppoints
Format settings, Matrix : Default (H.263)
Codec ID : XVID
Codec ID/Hint : XviD
Duration : 1h 30mn
Bit rate : 2 110 Kbps
Width : 720 pixels
Height : 384 pixels
Display aspect ratio : 1.85:1
Frame rate : 25.000 fps
Color space : YUV
Chroma subsampling : 4:2:0
Bit depth : 8 bits
Scan type : Progressive
Compression mode : Lossy
Bits/(Pixel*Frame) : 0.305
Stream size : 1.33 GiB (91%)
Writing library : XviD 64
Audio
ID : 1
Format : AC-3
Format/Info : Audio Coding 3
Mode extension : CM (complete main)
Format settings, Endianness : Big
Codec ID : 2000
Duration : 1h 30mn
Bit rate mode : Constant
Bit rate : 192 Kbps
Channel(s) : 2 channels
Channel positions : Front: L R
Sampling rate : 48.0 KHz
Bit depth : 16 bits
Compression mode : Lossy
Stream size : 124 MiB (8%)
Alignment : Aligned on interleaves
Interleave, duration : 40 ms (1.00 video frame)
Interleave, preload duration : 512 ms

Скриншот c названием фильма

Скриншоты

Скачать

Скачать торрент!

Как скачивать? · Что такое торрент? · Рейтинг и ограничения

Сайт не распространяет и не хранит электронные версии произведений, а лишь предоставляет доступ к создаваемому пользователями каталогу ссылок на торрент-файлы, которые содержат только списки хеш-сумм

[Профиль] [ЛС]
Показать сообщения:    
Ответить на тему

Текущее время: Сегодня 16:13

Часовой пояс: GMT + 4



Вы не можете начинать темы
Вы не можете отвечать на сообщения
Вы не можете редактировать свои сообщения
Вы не можете удалять свои сообщения
Вы не можете голосовать в опросах
Вы не можете прикреплять файлы к сообщениям
Вы не можете скачивать файлы