Приключение императора / Adventure of the King / Dragon and Phoenix Inn (Чун Шу Кай / Chung Shu-Kai) [2010, Гонконг, комедия, HDRip] Sub Rus

Ответить на тему
 
Автор Сообщение

user ®

Стаж: 11 лет

Сообщений: 15151

Пост Пост: #1 от 19-Мар-2014 22:20

[Цитировать]

Приключение императора / Adventure of the King / Dragon and Phoenix Inn
Страна: Гонконг
Жанр: комедия
Год выпуска: 2010
Продолжительность: 01:48:53-Перевод: Субтитры (Onizuka)
Cубтитры: русские (вшитые)
Оригинальная аудиодорожка: Кантонский-Режиссер: Чун Шу Кай / Chung Shu-Kai
В ролях: Ричи Рэнь Сень Ци, Барби Хсу Хси Юань, Пань Чан Тьян, Лау Кар Ин, Брюс Люн Сыу Лун, Хо Сыянь, Фу И Вэй, У Ма, Лам Вай, Чжан Хон Бинь, Фун Хак Онь, Чыу Чы Лин-Описание: Император проведший всю жизнь во дворце, пытается выбраться, чтобы посмотреть на мир и найти себе невесту, так начинается его незабываемое приключение....- -Релиз группы
-Качество видео: HDRip (720p)
Формат видео: AVI
Видео: XviD, 720x304 (2.37:1), 24 fps, 1718 kbps avg, 0.33 bit/pixel
Аудио: Кантонский MPEG layer 3, 192 kbps-

MediaInfo

Format : AVI
Format/Info : Audio Video Interleave
File size : 1.46 GiB
Duration : 1h 48mn
Overall bit rate : 1 920 Kbps
Writing application : VirtualDubMod 1.5.10.3 | www.virtualdub-fr.org || (build 2550/release)
Writing library : VirtualDubMod build 2550/release
Video
ID : 0
Format : MPEG-4 Visual
Format profile : Advanced Simple@L5
Format settings, BVOP : 1
Format settings, QPel : No
Format settings, GMC : No warppoints
Format settings, Matrix : Custom
Codec ID : XVID
Codec ID/Hint : XviD
Duration : 1h 48mn
Bit rate : 1 719 Kbps
Width : 720 pixels
Height : 304 pixels
Display aspect ratio : 2.35:1
Frame rate : 24.000 fps
Color space : YUV
Chroma subsampling : 4:2:0
Bit depth : 8 bits
Scan type : Progressive
Compression mode : Lossy
Bits/(Pixel*Frame) : 0.327
Stream size : 1.31 GiB (90%)
Writing library : XviD 73
Audio
ID : 1
Format : MPEG Audio
Format version : Version 1
Format profile : Layer 3
Codec ID : 55
Codec ID/Hint : MP3
Duration : 1h 48mn
Bit rate mode : Constant
Bit rate : 192 Kbps
Channel(s) : 2 channels
Sampling rate : 48.0 KHz
Compression mode : Lossy
Stream size : 150 MiB (10%)
Alignment : Aligned on interleaves
Interleave, duration : 42 ms (1.00 video frame)
Interleave, preload duration : 504 ms

Скриншот с названием

Скриншоты

Скачать

Скачать торрент! Приключение императора / Adventure of the King / Dragon and Phoenix Inn (Чун Шу Кай / Chung Shu-Kai) [2010, Гонконг, комедия, HDRip] Sub Rus

Как скачивать? · Что такое торрент? · Рейтинг и ограничения

Сайт не распространяет и не хранит электронные версии произведений, а лишь предоставляет доступ к создаваемому пользователями каталогу ссылок на торрент-файлы, которые содержат только списки хеш-сумм

[Профиль] [ЛС]
Показать сообщения:    
Ответить на тему

Текущее время: Сегодня 21:01

Часовой пояс: GMT + 4



Вы не можете начинать темы
Вы не можете отвечать на сообщения
Вы не можете редактировать свои сообщения
Вы не можете удалять свои сообщения
Вы не можете голосовать в опросах
Вы не можете прикреплять файлы к сообщениям
Вы не можете скачивать файлы