Конфуций / Kong Zi / Confucius / Confucio (Ху Мэй / Hu Mei) [2010, Китай, исторический, биографический, драма, DVB] DVO (oneofthebest)

Ответить на тему
 
Автор Сообщение

user ®

Стаж: 11 лет

Сообщений: 15151

Пост Пост: #1 от 17-Мар-2014 23:30

[Цитировать]

Конфуций
Kong Zi / Confucius- Страна: Китай
Жанр: исторический, биографический, драма
Год выпуска: 2010
Продолжительность: 02:03:48Перевод: Профессиональный (двухголосый закадровый) (oneofthebest)
Cубтитры: нет
Оригинальная аудиодорожка: нет
Режиссер: Ху Мэй / Hu Mei
В ролях: Чоу Юнь-Фат / Yun-Fat Chow (Confucius), Цзяньбинь Чэнь / Jianbin Chen (Ji Sunsi), Чжоу Сюнь / Xun Zhou (Nanzi), Яо Лу / Lu Yao (Lu Jun)
Описание: Китай еще не был единым в "Период Весен и Осеней". Страна представляла собой лоскутное одеяло из феодальных княжеств и государств, постоянно соперничающих друг с другом за превосходство и территории.
В Княжестве Лу все было как везде: условный правитель не имел реального авторитета, а настоящая власть была сосредоточена в руках трех местных кланов. Пораженный успехами Конфуция на посту мэра Чжунду, правитель Лу призвал его ко двору и назначил министром обрядов.
Мудрый и ученый Конфуций служит Отчизне, но предательство и интриги вынуждают его покинуть Родину и долгие годы скитаться по Древнему Китаю в поисках признания.
Доп. информация: "365 дней"
Награды: приз Golden Phoenix Awards (China) 2011 за лучшую женскую роль (Xun Zhou); награда Hong Kong Film Awards 2011 лучшему оператору + 3 номинации; награда Huabiao Film Awards 2011 лучшему актеру (Yun-Fat Chow) + номинация на лучшую музыку.
http://www.imdb.com/title/tt1397498/
Сэмпл: http://multi-up.com/959605
Качество видео: DVB-S
Формат видео: MPEG-PS [url=http://***/forum/viewtopic.php?p=58098458#58098458](См. при проблемах с просмотром видео)[/url]
Видео: MPEG Video 2, 720x576@768x576 (4:3), 25 fps, ~1868 kbps avg, 0.180 bit/pixel
Аудио: 48 kHz, MPEG Audio 2, 2 ch, ~192.00 kbps avg

MediaInfo

Полное имя : H:\My Torrents\[apreder]Kong_Zi(2009)DVB.mpgФормат : MPEG-PSРазмер файла : 1,82 ГбайтПродолжительность : 2 ч. 3 м.Режим общего битрейта : ПеременныйОбщий поток : 2102 Кбит/сек
ВидеоИдентификатор : 224 (0xE0)Формат : MPEG VideoВерсия формата : Version 2Профиль формата : Main@MainПараметр BVOP формата : ДаПараметр матрицы формата : ВыборочнаяПараметр GOP формата : VariableПродолжительность : 2 ч. 3 м.Вид битрейта : ПеременныйБитрейт : 1868 Кбит/секШирина : 720 пикселейВысота : 576 пикселейСоотношение сторон : 4:3Частота кадров : 25,000 кадров/секСтандарт вещания : PALЦветовое пространство : YUVСубдискретизация насыщенности : 4:2:0Битовая глубина : 8 битТип развёртки : ЧересстрочнаяПорядок развёртки : Верхнее поле первоеМетод сжатия : С потерямиБит/(Пиксели*Кадры) : 0.180Временной код первого кадра : 00:00:00:00Оригинал временного кода : Group of pictures headerРазмер потока : 1,62 Гбайт (89%)
АудиоИдентификатор : 192 (0xC0)Формат : MPEG AudioВерсия формата : Version 1Профиль формата : Layer 2Продолжительность : 2 ч. 3 м.Вид битрейта : ПостоянныйБитрейт : 192 Кбит/секКаналы : 2 каналаЧастота : 48,0 КГцМетод сжатия : С потерямиРазмер потока : 170 Мбайт (9%)

Скриншот c названием фильма

Скриншоты


Резервные скриншоты


-1'222/1'203√[-4]
Скачать

Скачать торрент! Конфуций / Kong Zi / Confucius / Confucio (Ху Мэй / Hu Mei) [2010, Китай, исторический, биографический, драма, DVB] DVO (oneofthebest)

Как скачивать? · Что такое торрент? · Рейтинг и ограничения

Сайт не распространяет и не хранит электронные версии произведений, а лишь предоставляет доступ к создаваемому пользователями каталогу ссылок на торрент-файлы, которые содержат только списки хеш-сумм

[Профиль] [ЛС]
Показать сообщения:    
Ответить на тему

Текущее время: Сегодня 11:16

Часовой пояс: GMT + 4



Вы не можете начинать темы
Вы не можете отвечать на сообщения
Вы не можете редактировать свои сообщения
Вы не можете удалять свои сообщения
Вы не можете голосовать в опросах
Вы не можете прикреплять файлы к сообщениям
Вы не можете скачивать файлы