Спасение генерала Яна / Saving General Yang (Ронни Ю / Ronny Yu) [2013, Китай, приключения, биография, HDRip] DVO

Ответить на тему
 
Автор Сообщение

user ®

Стаж: 11 лет

Сообщений: 15151

Пост Пост: #1 от 17-Мар-2014 08:55

[Цитировать]

Спасение генерала Яна / Saving General Yang- -Страна: Гонконг, Китай
Жанр: приключения, биография
Год выпуска: 2013
Продолжительность: 01:41:47-Перевод: Любительский (двухголосый закадровый) [Ворон ft. Misa]-Cубтитры: нет
Оригинальная аудиодорожка: нет
Режиссер: Ронни Ю / Ronny Yu
В ролях: Сюй Фань, Адам Чэн, Экин Чэн, Бо Юй, Вик Чоу, Ли Чэнь, Рэймонд Лам, Чун Ву, Синьбо Фу, Шао Бин
Описание: Во времена династии Сун семья Ян была одним из наиболее влиятельных семейств в китайской империи. Когда генерал Ян в результате предательства попал в ловушку, семь его сыновей отправляются спасать отца.
Качество видео: HDRip
Формат видео: AVI
Видео: MPEG-4 Visual at 1663 Кбит/сек; 720 x 304 (2.368) at 24.000 fps
Аудио: AC-3 at 384 Кбит/сек; 6 каналов, 48,0 КГц
Релиз от -

MediaInfo

Общее
Полное имя : D:\Фильмы\Азиатские\Спасение генерала Яна\Saving General Yang.2013.HDRip.XviD.AC3. 1400MB.rip by [Assassin's Creed].avi
Формат : AVI
Формат/Информация : Audio Video Interleave
Размер файла : 1,46 Гбайт
Продолжительность : 1 ч. 41 м.
Общий поток : 2056 Кбит/сек
Программа кодирования : VirtualDubMod 1.5.10.3 | www.virtualdub-fr.org || (build 2550/release)
Библиотека кодирования : VirtualDubMod build 2550/release
Видео
Идентификатор : 0
Формат : MPEG-4 Visual
Профиль формата : Advanced Simple@L5
Параметр BVOP формата : 1
Параметр QPel формата : Нет
Параметр GMC формата : Без точки перехода
Параметр матрицы формата : Default (MPEG)
Идентификатор кодека : XVID
Идентификатор кодека/Подсказка : XviD
Продолжительность : 1 ч. 41 м.
Битрейт : 1663 Кбит/сек
Ширина : 720 пикселей
Высота : 304 пикселя
Соотношение сторон : 2,35:1
Частота кадров : 24,000 кадра/сек
Цветовое пространство : YUV
Субдискретизация насыщенности : 4:2:0
Битовая глубина : 8 бит
Тип развёртки : Прогрессивная
Метод сжатия : С потерями
Бит/(Пиксели*Кадры) : 0.317
Размер потока : 1,18 Гбайт (81%)
Библиотека кодирования : XviD 1.2.1 (UTC 2008-12-04)
Аудио
Идентификатор : 1
Формат : AC-3
Формат/Информация : Audio Coding 3
Расширение режима : CM (complete main)
Параметр Endianness формата : Big
Идентификатор кодека : 2000
Продолжительность : 1 ч. 41 м.
Вид битрейта : Постоянный
Битрейт : 384 Кбит/сек
Каналы : 6 каналов
Расположение каналов : Front: L C R, Side: L R, LFE
Частота : 48,0 КГц
Битовая глубина : 16 бит
Метод сжатия : С потерями
Размер потока : 280 Мбайт (19%)
Выравнивание : Разделение по промежуткам
Продолжительность промежутка : 42 мс. (1,00 видеокадр)
Время предзагрузки промежутка : 500 мс.

Скриншот c названием фильма

Скриншоты

Скачать

Скачать торрент! Спасение генерала Яна / Saving General Yang (Ронни Ю / Ronny Yu) [2013, Китай, приключения, биография, HDRip] DVO

Как скачивать? · Что такое торрент? · Рейтинг и ограничения

Сайт не распространяет и не хранит электронные версии произведений, а лишь предоставляет доступ к создаваемому пользователями каталогу ссылок на торрент-файлы, которые содержат только списки хеш-сумм

[Профиль] [ЛС]
Показать сообщения:    
Ответить на тему

Текущее время: Сегодня 19:14

Часовой пояс: GMT + 4



Вы не можете начинать темы
Вы не можете отвечать на сообщения
Вы не можете редактировать свои сообщения
Вы не можете удалять свои сообщения
Вы не можете голосовать в опросах
Вы не можете прикреплять файлы к сообщениям
Вы не можете скачивать файлы