Особая личность / Special ID / Dak siu san fan (Кларенс Фок Ииу-леунг / Clarence Fok Yiu-leung) [2013, Китай, Гонконг, боевик, триллер, криминал, HDRip] DVO [GREEN TEA]

Ответить на тему
 
Автор Сообщение

user ®

Стаж: 13 лет

Сообщений: 15071

Пост Пост: #1 от 16-Мар-2014 21:40

[Цитировать]

Особая личность / Special ID / Dak siu san fan- -Страна: Китай, Гонконг
Жанр: боевик, триллер, криминал
Год выпуска: 2013
Продолжительность: 01:39:40-Перевод: Любительский (двухголосый закадровый) [GREEN TEA]-Cубтитры: нет
Оригинальная аудиодорожка: нет
Режиссер: Кларенс Фок Ииу-леунг / Clarence Fok Yiu-leung
В ролях: Тянь Цзин, Донни Ен, Энди Он, Рональд Чэн, Колин Чоу, Теренс Йин, Чжиган Ян, Чжан Ханьюй, Хи Чинг Пав, Чеунг-Чинг Мак...
Описание: Чэнь Цзылун это сотрудник полиции под прикрытием, глубоко внедрившийся в ряды одной из самых жестоких банд Китая. Сюн, главарь банды, поставил себе главную задачу — отыскать правительственных агентов, втесавшихся в его окружение. Теперь Чэнь разрывается на два фронта: старается уберечь свою семью от распада и сохранить в тайне собственную личность.
Ставки с течением времени растут, т. к. с его товарищами по прикрытию поочерёдно расправляются, и Чэнь начинает опасаться, что его дни сочтены. Теперь ему придётся рискнуть всем, чтобы прикрыть преступную группировку и возвратить себе жизнь, которой он лишился, когда взялся за это опасное задание.
Качество видео: HDRip
Формат видео: AVI
Видео: MPEG-4 Visual at 913 Кбит/сек; 688 x 288 (2.389) at 24.000 fps
Аудио: MPEG Audio at 128 Кбит/сек; 2 канала, 48,0 КГц
Релиз от -

MediaInfo

Общее
Полное имя : D:\Фильмы\Азиатские\Особая личность\Special ID.2013.HDRip.XviD.MP3.DVO. rip by [Assassin's Creed].avi
Формат : AVI
Формат/Информация : Audio Video Interleave
Размер файла : 749 Мбайт
Продолжительность : 1 ч. 39 м.
Общий поток : 1050 Кбит/сек
Программа кодирования : VirtualDubMod 1.5.10.3 | www.virtualdub-fr.org || (build 2550/release)
Библиотека кодирования : VirtualDubMod build 2550/release
Видео
Идентификатор : 0
Формат : MPEG-4 Visual
Профиль формата : Advanced Simple@L5
Параметр BVOP формата : 2
Параметр QPel формата : Нет
Параметр GMC формата : Без точки перехода
Параметр матрицы формата : Default (H.263)
Идентификатор кодека : XVID
Идентификатор кодека/Подсказка : XviD
Продолжительность : 1 ч. 39 м.
Битрейт : 913 Кбит/сек
Ширина : 688 пикселей
Высота : 288 пикселей
Соотношение сторон : 2,40:1
Частота кадров : 24,000 кадра/сек
Цветовое пространство : YUV
Субдискретизация насыщенности : 4:2:0
Битовая глубина : 8 бит
Тип развёртки : Прогрессивная
Метод сжатия : С потерями
Бит/(Пиксели*Кадры) : 0.192
Размер потока : 651 Мбайт (87%)
Библиотека кодирования : XviD 1.2.1 (UTC 2008-12-04)
Аудио
Идентификатор : 1
Формат : MPEG Audio
Версия формата : Version 1
Профиль формата : Layer 3
Идентификатор кодека : 55
Идентификатор кодека/Подсказка : MP3
Продолжительность : 1 ч. 39 м.
Вид битрейта : Постоянный
Битрейт : 128 Кбит/сек
Каналы : 2 канала
Частота : 48,0 КГц
Метод сжатия : С потерями
Размер потока : 91,3 Мбайт (12%)
Выравнивание : Соединение по промежуткам
Продолжительность промежутка : 42 мс. (1,00 видеокадр)
Время предзагрузки промежутка : 504 мс.
Библиотека кодирования : LAME3.99r
Настройки программы : -m s -V 4 -q 2 -lowpass 17 -b 128

Скриншот c названием фильма

Скриншоты

Скачать

Скачать торрент! Особая личность / Special ID / Dak siu san fan (Кларенс Фок Ииу-леунг / Clarence Fok Yiu-leung) [2013, Китай, Гонконг, боевик, триллер, криминал, HDRip] DVO [GREEN TEA]

Как скачивать? · Что такое торрент? · Рейтинг и ограничения

Сайт не распространяет и не хранит электронные версии произведений, а лишь предоставляет доступ к создаваемому пользователями каталогу ссылок на торрент-файлы, которые содержат только списки хеш-сумм

[Профиль] [ЛС]
Показать сообщения:    
Ответить на тему

Текущее время: Сегодня 11:21

Часовой пояс: GMT + 4



Вы не можете начинать темы
Вы не можете отвечать на сообщения
Вы не можете редактировать свои сообщения
Вы не можете удалять свои сообщения
Вы не можете голосовать в опросах
Вы не можете прикреплять файлы к сообщениям
Вы не можете скачивать файлы