Хва-Йи / Hwayi / A Monster Boy (Jang Joon-Hwan / Чан Чжун Хван) [2013, Южная Корея, Боевик, триллер HDRip] DVO

Ответить на тему
 
Автор Сообщение

user ®

Стаж: 11 лет

Сообщений: 15151

Пост Пост: #1 от 15-Мар-2014 19:30

[Цитировать]

Хва-Йи / Hwayi / A Monster Boy
Страна: Южная Корея
Жанр: Боевик, триллер
Год выпуска: 2013
Продолжительность: 02:05:26-Перевод: Любительский (двухголосый закадровый) Ольга Гринтиева и Франк Цветков по субтитрам Виктории Широковой
Рип: Altruist
Звук Ольга Гринтиева
Cубтитры: нет
Оригинальная аудиодорожка: нет-Режиссер: Jang Joon-Hwan / Чан Чжун Хван
В ролях: Ким Юн Сок, Ё Чжин Гу, Чо Чжин Ун, Нам Чжи Хен-Описание: Герой картины по имени Хва Йи был похищен еще ребенком пятью членами банды во главе с Тэ Соком. Он воспитывает ребенка, как своего сына и при этом убеждая его, что тот его сын. Мальчик вырос и превратился в настоящего убийцу, в невероятно опытного киллера, которому по зубам должна была быть любая миссия. Но пришло время проверить парня и Тэ Сок берёт его с собой на задание. Во время операции он кое-что узнает о своем прошлом и теперь Хва-Йи берется за оружие чтобы выяснить кто же он на самом деле…- -Релиз группы
-Качество видео: HDRip (720p)
Формат видео: AVI
Видео: XviD, 720x304 (2.37:1), 23.976 fps, 1467 kbps avg, 0.28 bit/pixel
Аудио: Русский MPEG layer 3, 192 kbps-

MediaInfo

Format : AVI
Format/Info : Audio Video Interleave
File size : 1.46 GiB
Duration : 2h 5mn
Overall bit rate : 1 669 Kbps
Writing application : VirtualDubMod 1.5.10.3 | www.virtualdub-fr.org || (build 2550/release)
Writing library : VirtualDubMod build 2550/release
Video
ID : 0
Format : MPEG-4 Visual
Format profile : Advanced Simple@L5
Format settings, BVOP : 1
Format settings, QPel : No
Format settings, GMC : No warppoints
Format settings, Matrix : Custom
Codec ID : XVID
Codec ID/Hint : XviD
Duration : 2h 5mn
Bit rate : 1 467 Kbps
Width : 720 pixels
Height : 304 pixels
Display aspect ratio : 2.35:1
Frame rate : 23.976 fps
Color space : YUV
Chroma subsampling : 4:2:0
Bit depth : 8 bits
Scan type : Progressive
Compression mode : Lossy
Bits/(Pixel*Frame) : 0.280
Stream size : 1.29 GiB (88%)
Writing library : XviD 73
Audio
ID : 1
Format : MPEG Audio
Format version : Version 1
Format profile : Layer 3
Codec ID : 55
Codec ID/Hint : MP3
Duration : 2h 5mn
Bit rate mode : Constant
Bit rate : 192 Kbps
Channel(s) : 2 channels
Sampling rate : 48.0 KHz
Compression mode : Lossy
Stream size : 172 MiB (12%)
Alignment : Aligned on interleaves
Interleave, duration : 42 ms (1.00 video frame)
Interleave, preload duration : 504 ms

Скриншот с названием

Скриншоты

Скачать

Скачать торрент! Хва-Йи / Hwayi / A Monster Boy (Jang Joon-Hwan / Чан Чжун Хван) [2013, Южная Корея, Боевик, триллер HDRip] DVO

Как скачивать? · Что такое торрент? · Рейтинг и ограничения

Сайт не распространяет и не хранит электронные версии произведений, а лишь предоставляет доступ к создаваемому пользователями каталогу ссылок на торрент-файлы, которые содержат только списки хеш-сумм

[Профиль] [ЛС]
Показать сообщения:    
Ответить на тему

Текущее время: Сегодня 18:15

Часовой пояс: GMT + 4



Вы не можете начинать темы
Вы не можете отвечать на сообщения
Вы не можете редактировать свои сообщения
Вы не можете удалять свои сообщения
Вы не можете голосовать в опросах
Вы не можете прикреплять файлы к сообщениям
Вы не можете скачивать файлы