Ведьмы - ниндзя 10 / Ninja Vixens: Virgin Nightmares (Масанори Иноу / Masanori Inoue) [2004, Япония, ужасы, эротика, DVDRip] VO (Виктор Береговых)

Ответить на тему
 
Автор Сообщение

user ®

Стаж: 13 лет

Сообщений: 15071

Пост Пост: #1 от 13-Мар-2014 19:20

[Цитировать]

Ведьмы - ниндзя 10 / Ninja Vixens: Virgin Nightmares
Страна: Япония
Жанр: ужасы, эротика
Год выпуска: 2004
Продолжительность: 01:06:42
Перевод: Одноголосый закадровый (Виктор Береговых)
Cубтитры: нет
Режиссер: Масанори Иноу / Masanori Inoue
В ролях: Цюнь Сето, Тсуеши Накано, Тамами Канеко, Ерина Тагава, Сатоко Ямамуро
Описание: Замужняя женщина Натсу изменяет своему мужу с Юсаку.Родственники Натсу лишают ее зрения и убивают любовника,но перед смертью Юсаку проклинает их всех.Прошло 40 лет.Молодой парень по имени Ёкиши практически даром арендует дом,в котором произошло убийство Юсаку.Хозяин дома предупреждает его,что все жильцы,ранее снимавшие этот дом, сошли с ума и покончили с собой, но Ёкиши не верит и переезжает в проклятый дом вместе с беременной женой и маленькой дочерью...(В.Береговых)
Сэмпл: http://www.sendspace.com/file/yrx74v
Качество видео: DVDRip
Формат видео: AVI
Видео: XviD, 720x416 (16:9), 29.970 fps, 2688 kbps avg, 0.299 bit/pixel
Аудио: AC3, 48.0 KHz, 192 Kbps, 2 channels

MediaInfo

General
Complete name : C:\Ведьмы - ниндзя 10\Ведьмы - ниндзя 10.avi
Format : AVI
Format/Info : Audio Video Interleave
File size : 1.35 GiB
Duration : 1h 6mn
Overall bit rate : 2 888 Kbps
Writing application : VirtualDubMod 1.5.4.1 (build 2178/release)
Writing library : VirtualDubMod build 2178/release
Video
ID : 0
Format : MPEG-4 Visual
Format profile : Simple@L3
Format settings, BVOP : Yes
Format settings, QPel : No
Format settings, GMC : No warppoints
Format settings, Matrix : Custom
Codec ID : XVID
Codec ID/Hint : XviD
Duration : 1h 6mn
Bit rate : 2 688 Kbps
Width : 720 pixels
Height : 416 pixels
Display aspect ratio : 16:9
Frame rate : 29.970 fps
Resolution : 24 bits
Colorimetry : 4:2:0
Scan type : Progressive
Bits/(Pixel*Frame) : 0.299
Stream size : 1.25 GiB (93%)
Writing library : XviD 1.0.1 (UTC 2004-06-05)
Audio
ID : 1
Format : AC-3
Format/Info : Audio Coding 3
Codec ID : 2000
Duration : 1h 6mn
Bit rate mode : Constant
Bit rate : 192 Kbps
Channel(s) : 2 channels
Channel positions : L R
Sampling rate : 48.0 KHz
Stream size : 91.6 MiB (7%)
Alignment : Split accross interleaves
Interleave, duration : 96 ms (2.88 video frames)
Interleave, preload duration : 96 ms
Language : Russian

Дополнительно

Это 10 диск в 10 - дисковом издании Ninja Vixens, получается, что 10 часть, хотя, конечно, все условно, больше для того,чтобы не путаться в фильмах этой серии.

Скриншот c названием фильма

Скриншоты

Скачать

Скачать торрент! Ведьмы - ниндзя 10 / Ninja Vixens: Virgin Nightmares (Масанори Иноу / Masanori Inoue) [2004, Япония, ужасы, эротика, DVDRip] VO (Виктор Береговых)

Как скачивать? · Что такое торрент? · Рейтинг и ограничения

Сайт не распространяет и не хранит электронные версии произведений, а лишь предоставляет доступ к создаваемому пользователями каталогу ссылок на торрент-файлы, которые содержат только списки хеш-сумм

[Профиль] [ЛС]
Показать сообщения:    
Ответить на тему

Текущее время: Сегодня 11:19

Часовой пояс: GMT + 4



Вы не можете начинать темы
Вы не можете отвечать на сообщения
Вы не можете редактировать свои сообщения
Вы не можете удалять свои сообщения
Вы не можете голосовать в опросах
Вы не можете прикреплять файлы к сообщениям
Вы не можете скачивать файлы