Ведьмы - ниндзя: пламя обольщения / Ninja Vixens: Flame of Seduction (Дайдзи Хаттори / Daiji Hattori) [2002, Япония, боевые искусства, эротика, DVDRip] VO (Виктор Береговых)

Ответить на тему
 
Автор Сообщение

user ®

Стаж: 11 лет

Сообщений: 15151

Пост Пост: #1 от 10-Мар-2014 17:50

[Цитировать]

Ведьмы - ниндзя: пламя обольщения / Ninja Vixens: Flame of Seduction
Страна: Япония
Жанр: боевые искусства, эротика
Год выпуска: 2002
Продолжительность: 01:09:14
Перевод: Одноголосый закадровый (Виктор Береговых)
Cубтитры: нет
Режиссер: Дайдзи Хаттори / Daiji Hattori
В ролях: Сара Шимада, Шоу Азаки, Нао Оикава, Тсутому Томура, Миза Нагая, Ёшиюки Аои, Коучи Кира
Описание: Злодей по прозвищу Король Лев уничтожает клан ниндзя Ходзё.В живых остаются только двое: мастер Дракон и молодая девушка Айрис.Они полны желания отомстить.Мастер Дракон ищет воинов,способных и готовых помочь ему и встречает девушку - ниндзя по прозвищу Колокольчик.Девушка соглашается помочь, но у нее есть и свои планы: человек с красными волосами убил ее мать и Колокольчик хочет найти его и отомстить.(В.Береговых)
Сэмпл: http://www.sendspace.com/file/jugros
Качество видео: DVDRip
Формат видео: AVI
Видео: XviD, 720x416 (16:9), 29.970 fps, 2628 kbps avg, 0.293 bit/pixel
Аудио: AC3, 48.0 KHz, 192 Kbps, 2 channels

MediaInfo

General
Complete name : C:\Ведьмы - ниндзя\Ведьмы - ниндзя.avi
Format : AVI
Format/Info : Audio Video Interleave
File size : 1.37 GiB
Duration : 1h 9mn
Overall bit rate : 2 828 Kbps
Writing application : VirtualDubMod 1.5.4.1 (build 2178/release)
Writing library : VirtualDubMod build 2178/release
Video
ID : 0
Format : MPEG-4 Visual
Format profile : Simple@L3
Format settings, BVOP : Yes
Format settings, QPel : No
Format settings, GMC : No warppoints
Format settings, Matrix : Custom
Codec ID : XVID
Codec ID/Hint : XviD
Duration : 1h 9mn
Bit rate : 2 628 Kbps
Width : 720 pixels
Height : 416 pixels
Display aspect ratio : 16:9
Frame rate : 29.970 fps
Resolution : 24 bits
Colorimetry : 4:2:0
Scan type : Progressive
Bits/(Pixel*Frame) : 0.293
Stream size : 1.27 GiB (93%)
Writing library : XviD 1.0.1 (UTC 2004-06-05)
Audio
ID : 1
Format : AC-3
Format/Info : Audio Coding 3
Codec ID : 2000
Duration : 1h 9mn
Bit rate mode : Constant
Bit rate : 192 Kbps
Channel(s) : 2 channels
Channel positions : L R
Sampling rate : 48.0 KHz
Stream size : 95.1 MiB (7%)
Alignment : Split accross interleaves
Interleave, duration : 96 ms (2.88 video frames)
Interleave, preload duration : 96 ms
Language : Russian

Скриншот c названием фильма

Скриншоты

Скачать

Скачать торрент! Ведьмы - ниндзя: пламя обольщения / Ninja Vixens: Flame of Seduction (Дайдзи Хаттори / Daiji Hattori) [2002, Япония, боевые искусства, эротика, DVDRip] VO (Виктор Береговых)

Как скачивать? · Что такое торрент? · Рейтинг и ограничения

Сайт не распространяет и не хранит электронные версии произведений, а лишь предоставляет доступ к создаваемому пользователями каталогу ссылок на торрент-файлы, которые содержат только списки хеш-сумм

[Профиль] [ЛС]
Показать сообщения:    
Ответить на тему

Текущее время: Сегодня 18:16

Часовой пояс: GMT + 4



Вы не можете начинать темы
Вы не можете отвечать на сообщения
Вы не можете редактировать свои сообщения
Вы не можете удалять свои сообщения
Вы не можете голосовать в опросах
Вы не можете прикреплять файлы к сообщениям
Вы не можете скачивать файлы