Тётушки (Александр Кананович) [2013, Комедия, DVDRip]

Ответить на тему
 
Автор Сообщение

user ®

Стаж: 7 лет 7 месяцев

Сообщений: 20008

Пост Пост: #1 от 10-Мар-2014 07:45

[Цитировать]

Тётушки
Жанр: Комедия, семейный, фэнтези
Год выпуска: 2013
Продолжительность: 01:30:28
Режиссёр: Александр Кананович
В ролях: Николай Ефремов, Никита Ефремов, Михаил Ефремов, Екатерина Васильева, Альберт Филозов, Ивар Калныньш, Валентина Теличкина, Мирдза Мартинсоне, Камиль Ларин, Татьяна Рудина
Описание: Чудеса становятся реальностью, особенно, если кому-то это очень сильно нужно. Героям фильма Маше и её деду, накануне Рождества грозит опасность о которой они ещё не подозревают. И поэтому они совершенно беззащитны перед грядущими неприятностями. Но помощь придёт совершенно с неожиданной стороны… Все мечты в эту волшебную ночь исполнятся самым невероятным образом - главное чтобы в сердце жила настоящая любовь…

Сэмпл: http://multi-up.com/957258
Качество видео: DVDRip
Формат видео: AVI
Видео: XviD, 720x400 (16:9), 25 кадр/с, 1022 Кбит/с
Аудио: Русский, MP3, 48000 Гц, 128 Кбит/с, 2 канала (Стерео)

MediaInfo

Общее
Полное имя : Tetyshki.2013.O.DVDRip.700Mb.avi
Формат : AVI
Формат/Информация : Audio Video Interleave
Размер файла : 753 Мбайт
Продолжительность : 1 ч. 30 м.
Общий поток : 1163 Кбит/сек
Программа кодирования : Lavf52.93.0
Видео
Идентификатор : 0
Формат : xvid
Идентификатор кодека : xvid
Продолжительность : 1 ч. 30 м.
Битрейт : 1022 Кбит/сек
Ширина : 720 пикселей
Высота : 400 пикселей
Соотношение сторон : 16:9
Частота кадров : 25,000 кадров/сек
Бит/(Пиксели*Кадры) : 0.142
Размер потока : 661 Мбайт (88%)
Аудио
Идентификатор : 1
Формат : MPEG Audio
Версия формата : Version 1
Профиль формата : Layer 3
Режим : Joint stereo
Расширение режима : MS Stereo
Идентификатор кодека : 55
Идентификатор кодека/Подсказка : MP3
Продолжительность : 1 ч. 30 м.
Вид битрейта : Постоянный
Битрейт : 128 Кбит/сек
Каналы : 2 канала
Частота : 48,0 КГц
Метод сжатия : С потерями
Размер потока : 82,8 Мбайт (11%)
Выравнивание : Соединение по промежуткам
Продолжительность промежутка : 24 мс. (0,60 видеокадр)
Время предзагрузки промежутка : 48 мс.
Библиотека кодирования : LAME3.98.4

Скриншот c названием фильма

Скриншоты

Скачать

Скачать торрент!

Как скачивать? · Что такое торрент? · Рейтинг и ограничения

Сайт не распространяет и не хранит электронные версии произведений, а лишь предоставляет доступ к создаваемому пользователями каталогу ссылок на торрент-файлы, которые содержат только списки хеш-сумм

[Профиль] [ЛС]
Показать сообщения:    
Ответить на тему

Текущее время: Сегодня 02:16

Часовой пояс: GMT + 4



Вы не можете начинать темы
Вы не можете отвечать на сообщения
Вы не можете редактировать свои сообщения
Вы не можете удалять свои сообщения
Вы не можете голосовать в опросах
Вы не можете прикреплять файлы к сообщениям
Вы не можете скачивать файлы