Куноити: девушка - ниндзя / Kunoichi: Ninja Girl (Сейдзи Чиба / Seiji Chiba) [2011, Япония, боевые искусства, драма, DVDRip] VO (Виктор Береговых)

Ответить на тему
 
Автор Сообщение

user ®

Стаж: 11 лет

Сообщений: 15151

Пост Пост: #1 от 09-Мар-2014 22:15

[Цитировать]

Куноити: девушка - ниндзя / Kunoichi: Ninja Girl
Страна: Япония
Жанр: боевые искусства, драма
Год выпуска: 2011
Продолжительность: 01:04:38
Перевод: Одноголосый закадровый (Виктор Береговых)
Cубтитры: нет
Режиссер: Сейдзи Чиба / Seiji Chiba
В ролях: Рина Такеда, Мицуки Кога, Масанори Мимото, Сихо Фуджисава, Котоно, Кодзи Инагаки, Кэнтаро Симадзу
Описание: Мужчины деревни Ига похищают женщин деревни Куга. Кисараги, одна из похищенных женщин намеренно дает себя похитить.Ее задача выяснить кто стоит за участившимися похищениями,найти предателя среди своих и уничтожить всех мужчин вражеской деревни.
Сэмпл: http://www.sendspace.com/file/tx53cp
Качество видео: DVDRip
Формат видео: AVI
Видео: XviD, 720x416 (16:9), 25.000 fps, 2825 kbps avg, 0.377 bit/pixel
Аудио: AC3, 48.0 KHz, 192 Kbps, 2 channels

MediaInfo

General
Complete name : C:\Куноити девушка ниндзя\Куноити девушка ниндзя.avi
Format : AVI
Format/Info : Audio Video Interleave
File size : 1.37 GiB
Duration : 1h 4mn
Overall bit rate : 3 024 Kbps
Writing application : VirtualDubMod 1.5.4.1 (build 2178/release)
Writing library : VirtualDubMod build 2178/release
Video
ID : 0
Format : MPEG-4 Visual
Format profile : Simple@L3
Format settings, BVOP : Yes
Format settings, QPel : No
Format settings, GMC : No warppoints
Format settings, Matrix : Custom
Codec ID : XVID
Codec ID/Hint : XviD
Duration : 1h 4mn
Bit rate : 2 825 Kbps
Width : 720 pixels
Height : 416 pixels
Display aspect ratio : 16:9
Frame rate : 25.000 fps
Resolution : 24 bits
Colorimetry : 4:2:0
Scan type : Progressive
Bits/(Pixel*Frame) : 0.377
Stream size : 1.28 GiB (93%)
Writing library : XviD 1.0.1 (UTC 2004-06-05)
Audio
ID : 1
Format : AC-3
Format/Info : Audio Coding 3
Codec ID : 2000
Duration : 1h 4mn
Bit rate mode : Constant
Bit rate : 192 Kbps
Channel(s) : 2 channels
Channel positions : L R
Sampling rate : 48.0 KHz
Stream size : 88.8 MiB (6%)
Alignment : Split accross interleaves
Interleave, duration : 96 ms (2.40 video frames)
Interleave, preload duration : 96 ms
Language : Russian

Скриншот c названием фильма

Скриншоты

Скачать

Скачать торрент! Куноити: девушка - ниндзя / Kunoichi: Ninja Girl (Сейдзи Чиба / Seiji Chiba) [2011, Япония, боевые искусства, драма, DVDRip] VO (Виктор Береговых)

Как скачивать? · Что такое торрент? · Рейтинг и ограничения

Сайт не распространяет и не хранит электронные версии произведений, а лишь предоставляет доступ к создаваемому пользователями каталогу ссылок на торрент-файлы, которые содержат только списки хеш-сумм

[Профиль] [ЛС]
Показать сообщения:    
Ответить на тему

Текущее время: Сегодня 21:05

Часовой пояс: GMT + 4



Вы не можете начинать темы
Вы не можете отвечать на сообщения
Вы не можете редактировать свои сообщения
Вы не можете удалять свои сообщения
Вы не можете голосовать в опросах
Вы не можете прикреплять файлы к сообщениям
Вы не можете скачивать файлы