Меч отмщения 6: Белые небеса ада / Lone Wolf and Cub: White heavens hell / Kozure okami: Jigoku e ikuzo! Daigoro (Йошиюки Курода / Yoshiyuki Kuroda) [1974, Япония, драма, самурайский боевик, HDRip] AVO

Ответить на тему
 
Автор Сообщение

user ®

Стаж: 11 лет

Сообщений: 15151

Пост Пост: #1 от 09-Мар-2014 22:15

[Цитировать]

Меч отмщения 6: Белые небеса ада / Lone Wolf and Cub: White heavens hell / Kozure okami: Jigoku e ikuzo! Daigoro- -Страна: Япония
Жанр: драма, самурайский боевик
Год выпуска: 1974
Продолжительность: 01:23:35-Перевод: Авторский (одноголосый закадровый) [Сергей Кузнецов]-Cубтитры: нет
Оригинальная аудиодорожка: нет
Режиссер: Йошиюки Курода / Yoshiyuki Kuroda
В ролях: Томисабуро Вакаяма, Митиё Окусу, Акихиро Томикава, Шинго Ямасиро, Томоми Сато, Акира Ямаути, Хидэдзи Отаки, Такэтоси Найто, Фудзио Суга, Рокко Тоура..
Описание: Шестой фильм из серии Одинокий волк и его ребенок. В этой, последней, серии злой князь Ягю Рэцудо, которому до сих пор не удалось устранить Огами, решает применить своё последнее оружие. Это оружие — его дочь Каори, неофициальный сын от наложницы Хайеи, и сверхъестественные воины клана Демонов Гор ташигумо, которые могли передвигаться под землёй, как будто бы это была вода.
Если и на этот раз не удастся убить Огами, у Рэцудо не останется иного выбора, кроме как поднять против него всех воинов своего теневого клана. При численном превосходстве Ягю Огами никак не сможет выжить. Для этого ему придётся сразить всех воинов клана Ягю и клана Ташигумо.
Огами Итто и его сын всегда готовы к смерти. Но готов ли к смерти Рецудо?.
Качество видео: HDRip
Формат видео: AVI
Видео: MPEG-4 Visual at 1112 Кбит/сек; 688 x 288 (2.389) at 23.976 fps
Аудио: MPEG Audio at 128 Кбит/сек; 2 канала, 48,0 КГц
Релиз от -

MediaInfo

Общее
Полное имя : D:\Фильмы\Азиатские\Меч отмщения 6\Sword of Vengeance 6.1973.HDRip.XviD.745MB. rip by [Assassin's Creed].avi
Формат : AVI
Формат/Информация : Audio Video Interleave
Размер файла : 747 Мбайт
Продолжительность : 1 ч. 23 м.
Общий поток : 1250 Кбит/сек
Программа кодирования : VirtualDubMod 1.5.10.3 | www.virtualdub-fr.org || (build 2550/release)
Библиотека кодирования : VirtualDubMod build 2550/release
Видео
Идентификатор : 0
Формат : MPEG-4 Visual
Профиль формата : Advanced Simple@L5
Параметр BVOP формата : 1
Параметр QPel формата : Нет
Параметр GMC формата : Без точки перехода
Параметр матрицы формата : Default (MPEG)
Идентификатор кодека : DX50
Идентификатор кодека/Подсказка : DivX 5
Продолжительность : 1 ч. 23 м.
Битрейт : 1112 Кбит/сек
Ширина : 688 пикселей
Высота : 288 пикселей
Соотношение сторон : 2,40:1
Частота кадров : 23,976 кадра/сек
Цветовое пространство : YUV
Субдискретизация насыщенности : 4:2:0
Битовая глубина : 8 бит
Тип развёртки : Прогрессивная
Метод сжатия : С потерями
Бит/(Пиксели*Кадры) : 0.234
Размер потока : 665 Мбайт (89%)
Библиотека кодирования : XviD 1.2.1 (UTC 2008-12-04)
Аудио
Идентификатор : 1
Формат : MPEG Audio
Версия формата : Version 1
Профиль формата : Layer 3
Идентификатор кодека : 55
Идентификатор кодека/Подсказка : MP3
Продолжительность : 1 ч. 23 м.
Вид битрейта : Постоянный
Битрейт : 128 Кбит/сек
Каналы : 2 канала
Частота : 48,0 КГц
Метод сжатия : С потерями
Размер потока : 76,5 Мбайт (10%)
Выравнивание : Соединение по промежуткам
Продолжительность промежутка : 42 мс. (1,00 видеокадр)
Время предзагрузки промежутка : 504 мс.
Библиотека кодирования : LAME3.99r
Настройки программы : -m s -V 4 -q 2 -lowpass 17 -b 128

Скриншот c названием фильма

Скриншоты

Скачать

Скачать торрент! Меч отмщения 6: Белые небеса ада / Lone Wolf and Cub: White heavens hell / Kozure okami: Jigoku e ikuzo! Daigoro (Йошиюки Курода / Yoshiyuki Kuroda) [1974, Япония, драма, самурайский боевик, HDRip] AVO

Как скачивать? · Что такое торрент? · Рейтинг и ограничения

Сайт не распространяет и не хранит электронные версии произведений, а лишь предоставляет доступ к создаваемому пользователями каталогу ссылок на торрент-файлы, которые содержат только списки хеш-сумм

[Профиль] [ЛС]
Показать сообщения:    
Ответить на тему

Текущее время: Сегодня 19:03

Часовой пояс: GMT + 4



Вы не можете начинать темы
Вы не можете отвечать на сообщения
Вы не можете редактировать свои сообщения
Вы не можете удалять свои сообщения
Вы не можете голосовать в опросах
Вы не можете прикреплять файлы к сообщениям
Вы не можете скачивать файлы