Меч отмщения 5: Ребенок в коляске в краю демонов / Lone Wolf and Cub: A child in a wheelchair to the edge of the demons / Kozure Okami: Meifu (Кэндзи Мисуми / Kenji Misumi) [1973, Япония, драма, самурайский боевик, HDRip] DVO

Ответить на тему
 
Автор Сообщение

user ®

Стаж: 11 лет

Сообщений: 15151

Пост Пост: #1 от 09-Мар-2014 02:10

[Цитировать]

Меч отмщения 5: Ребенок в коляске в краю демонов / Lone Wolf and Cub: A child in a wheelchair to the edge of the demons / Kozure Okami: Meifu- -Страна: Япония
Жанр: драма, самурайский боевик
Год выпуска: 1973
Продолжительность: 01:29:20-Перевод: Любительский (двухголосый закадровый) [R.G. Orient Extreme]-Cубтитры: нет
Оригинальная аудиодорожка: нет
Режиссер: Кэндзи Мисуми / Kenji Misumi
В ролях: Томисабуро Вакаяма, Митиё Окусу, Акихиро Томикава, Шинго Ямасиро, Томоми Сато, Акира Ямаути, Хидэдзи Отаки, Такэтоси Найто, Фудзио Суга, Рокко Тоура...
Описание: Пятый фильм из серии Одинокий волк и его ребенок. Его услуги стоят 500 золотых монет. Если он соглашается выполнить задание, участь его жертвы решена. Он был официальным палачом сёгуната, но его обвинили в измене по навету теневого клана Ягю, люди Ура-Ягю убили его жену. Теперь всё, что у него есть — это маленький сын Дайгоро, грубая деревянная коляска, пара мечей и жажда мести. Вместе с сыном он вступил на Путь Ада, чтобы отомстить и не отступит от него даже ценой собственной жизни и жизни своего ребенка. Его зовут Огами Итто.
Новое задание Огами Итто заводит его в далекие земли знаменитого своими воинами в масках клана Курода. Пять воинов — вассалов клана Курода ищут встречи с Огами, чтобы просить его помощи в спасении клана. Но сначала они сразятся с ним, чтобы удостовериться, что он — лучший в своем деле. Каждый из них ищет Огами самостоятельно. Если Одинокий волк с коляской победит их, то перед смертью они изложат ему свою просьбу и отдадут каждый свою часть оплаты…
Огами Итто предстоит с помощью своих мечей не только выполнить чрезвычайно сложное задание, но и постараться не попасть в руки всесильного князя Рэцудо, который вынашивает свои планы в отношении клана Курода.
И на этот раз Рэцудо посылает по следу Огами целую армию.
Качество видео: HDRip
Формат видео: AVI
Видео: MPEG-4 Visual at 1034 Кбит/сек; 688 x 288 (2.389) at 23.976 fps
Аудио: MPEG Audio at 128 Кбит/сек; 2 канала, 48,0 КГц
Релиз от -

MediaInfo

Общее
Полное имя : D:\Фильмы\Азиатские\Меч отмщения 5\Sword of Vengeance 5.1973.HDRip.XviD.745MB. rip by [Assassin's Creed].avi
Формат : AVI
Формат/Информация : Audio Video Interleave
Размер файла : 748 Мбайт
Продолжительность : 1 ч. 29 м.
Общий поток : 1171 Кбит/сек
Программа кодирования : VirtualDubMod 1.5.10.2 (build 2540/release)
Библиотека кодирования : VirtualDubMod build 2540/release
Видео
Идентификатор : 0
Формат : MPEG-4 Visual
Профиль формата : Advanced Simple@L5
Параметр BVOP формата : 1
Параметр QPel формата : Нет
Параметр GMC формата : Без точки перехода
Параметр матрицы формата : Default (MPEG)
Идентификатор кодека : XVID
Идентификатор кодека/Подсказка : XviD
Продолжительность : 1 ч. 29 м.
Битрейт : 1034 Кбит/сек
Ширина : 688 пикселей
Высота : 288 пикселей
Соотношение сторон : 2,40:1
Частота кадров : 23,976 кадра/сек
Цветовое пространство : YUV
Субдискретизация насыщенности : 4:2:0
Битовая глубина : 8 бит
Тип развёртки : Прогрессивная
Метод сжатия : С потерями
Бит/(Пиксели*Кадры) : 0.218
Размер потока : 660 Мбайт (88%)
Библиотека кодирования : XviD 1.2.1 (UTC 2008-12-04)
Аудио
Идентификатор : 1
Формат : MPEG Audio
Версия формата : Version 1
Профиль формата : Layer 3
Идентификатор кодека : 55
Идентификатор кодека/Подсказка : MP3
Продолжительность : 1 ч. 29 м.
Вид битрейта : Постоянный
Битрейт : 128 Кбит/сек
Каналы : 2 канала
Частота : 48,0 КГц
Метод сжатия : С потерями
Размер потока : 81,8 Мбайт (11%)
Выравнивание : Соединение по промежуткам
Продолжительность промежутка : 42 мс. (1,00 видеокадр)
Время предзагрузки промежутка : 504 мс.
Библиотека кодирования : LAME3.99r
Настройки программы : -m s -V 4 -q 2 -lowpass 17 -b 128

Скриншот c названием фильма

Скриншоты

Скачать

Скачать торрент! Меч отмщения 5: Ребенок в коляске в краю демонов / Lone Wolf and Cub: A child in a wheelchair to the edge of the demons / Kozure Okami: Meifu (Кэндзи Мисуми / Kenji Misumi) [1973, Япония, драма, самурайский боевик, HDRip] DVO

Как скачивать? · Что такое торрент? · Рейтинг и ограничения

Сайт не распространяет и не хранит электронные версии произведений, а лишь предоставляет доступ к создаваемому пользователями каталогу ссылок на торрент-файлы, которые содержат только списки хеш-сумм

[Профиль] [ЛС]
Показать сообщения:    
Ответить на тему

Текущее время: Сегодня 03:05

Часовой пояс: GMT + 4



Вы не можете начинать темы
Вы не можете отвечать на сообщения
Вы не можете редактировать свои сообщения
Вы не можете удалять свои сообщения
Вы не можете голосовать в опросах
Вы не можете прикреплять файлы к сообщениям
Вы не можете скачивать файлы