Меч отмщения: Одинокий волк с ребенком / Lone Wolf and Cub: Sword of Vengeance / Kozure Okami: Kowokashi udekashi tsukamatsuru (Кэндзи Мисуми / Kenji Misumi) [1972, Япония, драма, самурайский боевик, HDRip] MVO

Ответить на тему
 
Автор Сообщение

user ®

Стаж: 13 лет

Сообщений: 15071

Пост Пост: #1 от 01-Мар-2014 18:10

[Цитировать]

Меч отмщения: Одинокий волк с ребенком / Lone Wolf and Cub: Sword of Vengeance / Kozure Okami: Kowokashi udekashi tsukamatsuru- -Страна: Япония
Жанр: драма, самурайский боевик
Год выпуска: 1972
Продолжительность: 01:23:20-Перевод: Профессиональный (многоголосый закадровый)-Cубтитры: нет
Оригинальная аудиодорожка: нет
Режиссер: Кэндзи Мисуми / Kenji Misumi
В ролях: Томисабуро Вакаяма, Фумио Ватанабэ, Томоко Маяма, Сигеру Цуюгути, Томоо Учида, Такэтоси Найто, Ёси Като, Йошико Фудзита, Рейко Касахара, Акихиро Томикава...
Описание: Вместе с маленьким сыном, он как наемник начинает свое кровавое шествие мести против секретного сообщества, убившего его жену и поставившего грязное пятно на его доброе имя. Его жизнь разбита и он буквально поверил, что он в аду, он и его маленький сын становится одиноким волком и волчонком.
Качество видео: HDRip
Формат видео: AVI
Видео: MPEG-4 Visual at 2330 Кбит/сек; 720 x 304 (2.368) at 23.976 fps
Аудио: AC-3 at 192 Кбит/сек; 2 канала, 48,0 КГц
Релиз от -

MediaInfo

Видео
Идентификатор : 0
Формат : MPEG-4 Visual
Профиль формата : Advanced Simple@L5
Параметр BVOP формата : 1
Параметр QPel формата : Нет
Параметр GMC формата : Без точки перехода
Параметр матрицы формата : Default (MPEG)
Идентификатор кодека : DX50
Идентификатор кодека/Подсказка : DivX 5
Продолжительность : 1 ч. 23 м.
Битрейт : 2330 Кбит/сек
Ширина : 720 пикселей
Высота : 304 пикселя
Соотношение сторон : 2,35:1
Частота кадров : 23,976 кадра/сек
Цветовое пространство : YUV
Субдискретизация насыщенности : 4:2:0
Битовая глубина : 8 бит
Тип развёртки : Прогрессивная
Метод сжатия : С потерями
Бит/(Пиксели*Кадры) : 0.444
Размер потока : 1,36 Гбайт (92%)
Библиотека кодирования : XviD 1.2.1 (UTC 2008-12-04)
Аудио
Идентификатор : 1
Формат : AC-3
Формат/Информация : Audio Coding 3
Расширение режима : CM (complete main)
Параметр Endianness формата : Big
Идентификатор кодека : 2000
Продолжительность : 1 ч. 23 м.
Вид битрейта : Постоянный
Битрейт : 192 Кбит/сек
Каналы : 2 канала
Расположение каналов : Front: L R
Частота : 48,0 КГц
Битовая глубина : 16 бит
Метод сжатия : С потерями
Размер потока : 114 Мбайт (8%)
Выравнивание : Разделение по промежуткам
Продолжительность промежутка : 42 мс. (1,00 видеокадр)
Время предзагрузки промежутка : 500 мс.

Скриншот c названием фильма

Скриншоты

Скачать

Скачать торрент! Меч отмщения: Одинокий волк с ребенком / Lone Wolf and Cub: Sword of Vengeance / Kozure Okami: Kowokashi udekashi tsukamatsuru (Кэндзи Мисуми / Kenji Misumi) [1972, Япония, драма, самурайский боевик, HDRip] MVO

Как скачивать? · Что такое торрент? · Рейтинг и ограничения

Сайт не распространяет и не хранит электронные версии произведений, а лишь предоставляет доступ к создаваемому пользователями каталогу ссылок на торрент-файлы, которые содержат только списки хеш-сумм

[Профиль] [ЛС]
Показать сообщения:    
Ответить на тему

Текущее время: Сегодня 17:17

Часовой пояс: GMT + 4



Вы не можете начинать темы
Вы не можете отвечать на сообщения
Вы не можете редактировать свои сообщения
Вы не можете удалять свои сообщения
Вы не можете голосовать в опросах
Вы не можете прикреплять файлы к сообщениям
Вы не можете скачивать файлы