Борис Годунов (Сергей Бондарчук) [1986, Драма, DVDRip]

Ответить на тему
 
Автор Сообщение

user ®

Стаж: 7 лет 7 месяцев

Сообщений: 20008

Пост Пост: #1 от 24-Фев-2014 12:45

[Цитировать]

Борис Годунов
Жанр: Драма
Год выпуска: 1986
Продолжительность: 02:19:26 (01:10:35 +
Режиссёр: Сергей Бондарчук
В ролях: Сергей Бондарчук - Борис Годунов
Александр Соловьёв - Григорий Отрепьев, Лжедмитрий I
Анатолий Ромашин - Василий Шуйский
Анатолий Васильев - Пётр Басманов
Адриана Беджиньска - Марина Мнишек
Евгений Самойлов - Пимен
Роман Филиппов - патриарх
Вячеслав Бутенко - Иван Воротынский
Елена Бондарчук - царевна Ксения
Геннадий Митрофанов - юродивый
Валерий Сторожик - Курбский
Юрий Лазарев - Гаврила Пушкин
Георгий Бурков - Варлаам
Вадим Александров - Мисаил
Ирина Скобцева - хозяйка корчмы
Людмила Коршакова - царица Мария
Фёдор Бондарчук - царевич Фёдор
Владимир Новиков - Семен Годунов
Олег Михайлов - Федор Мстиславский
Борис Химичев - Мосальский
Иван Лапиков - старик-слепец
Описание: Экранизация одноимённой исторической трагедии А. С. Пушкина. Действие картины происходит на рубеже ХVI и XVII веков. Показаны времена царствования Бориса Годунова и приход к власти Лжедмитрия I. Главное действующее лицо - русский царь Борис Годунов, взошедший на престол вслед за Иваном Грозным после смерти старшего сына Грозного Федора и гибели юного царевича Димитрия.
Доп. информация: По одноименной пьесе А. С. Пушкина. Действие происходит в конце XVI века, накануне «смутного времени». Главное действующее лицо этой исторической трагедии — русский царь Борис Годунов, взошедший на престол вслед за Иваном Грозным после трагических событий: смерти старшего сына Грозного Федора и гибели юного царевича Димитрия…
Сэмпл: http://sendfile.su/944345
Качество видео: DVDRip
Формат видео: AVI
Видео: XVID, 688х512, 1299 Кбит/сек, 25,000 кадров/сек, 0.154 bit/pixel
Аудио: MP3, 128 Кбит/сек, 2 канала, 48,0 КГц

MediaInfo

I:\Борис Годунов\Boris.Godunov.1986.DVDRip-1.46_[New-team]_by_AVP_Studio\01.avi
General
Complete name : I:\Борис Годунов\Boris.Godunov.1986.DVDRip-1.46_[New-team]_by_AVP_Studio\01.avi
Format : AVI
Format/Info : Audio Video Interleave
File size : 755 MiB
Duration : 1h 10mn
Overall bit rate : 1 496 Kbps
Writing application : VirtualDubModRus 1.5.10.2 (build 2542/release)
Writing library : VirtualDubMod build 2542/release
Video #0
ID : 0
Format : MPEG-4 Visual
Format profile : Advanced Simple@L5
Format settings, BVOP : 1
Format settings, QPel : No
Format settings, GMC : No warppoints
Format settings, Matrix : Custom
Codec ID : XVID
Codec ID/Hint : XviD
Duration : 1h 10mn
Bit rate : 1 299 Kbps
Width : 688 pixels
Height : 512 pixels
Display aspect ratio : 4:3
Frame rate : 25.000 fps
Color space : YUV
Chroma subsampling : 4:2:0
Bit depth : 8 bits
Scan type : Progressive
Compression mode : Lossy
Bits/(Pixel*Frame) : 0.148
Stream size : 656 MiB (87%)
Writing library : XviD 73
Audio #1
ID : 1
Format : MPEG Audio
Format version : Version 1
Format profile : Layer 3
Codec ID : 55
Codec ID/Hint : MP3
Duration : 1h 10mn
Bit rate mode : Constant
Bit rate : 128 Kbps
Channel count : 2 channels
Sampling rate : 48.0 KHz
Compression mode : Lossy
Stream size : 64.6 MiB (9%)
Alignment : Aligned on interleaves
Writing library : LAME3.99r
Encoding settings : -m s -V 4 -q 2 -lowpass 17 -b 128

Скриншот c названием фильма

Скриншоты

Скачать

Скачать торрент!

Как скачивать? · Что такое торрент? · Рейтинг и ограничения

Сайт не распространяет и не хранит электронные версии произведений, а лишь предоставляет доступ к создаваемому пользователями каталогу ссылок на торрент-файлы, которые содержат только списки хеш-сумм

[Профиль] [ЛС]
Показать сообщения:    
Ответить на тему

Текущее время: Сегодня 21:53

Часовой пояс: GMT + 4



Вы не можете начинать темы
Вы не можете отвечать на сообщения
Вы не можете редактировать свои сообщения
Вы не можете удалять свои сообщения
Вы не можете голосовать в опросах
Вы не можете прикреплять файлы к сообщениям
Вы не можете скачивать файлы