Параллельные миры (Ермек Аманшаев) [2013, Мелодрама, DVDRip]

Ответить на тему
 
Автор Сообщение

user ®

Стаж: 7 лет 7 месяцев

Сообщений: 20008

Пост Пост: #1 от 24-Фев-2014 12:45

[Цитировать]

Параллельные миры
Жанр: Мелодрама
Год выпуска: 2013
Продолжительность: 01:24:30
Режиссёр: Ермек Аманшаев
В ролях: Алена Бабенко, Берик Айтжанов, Евгений Стычкин, Дастен Шакиров, Александра Морозова, Арман Асенов, Алия Телебарисова, Бибигуль Суюншалина, Ольга Коржева
Описание: Она одинока. Он случайно оказывается на ее балконе. Завязывается разговор, потом танец, потом странная перестановка в комнате - и все в её жизни меняется. Через балкон он нечаянно находит путь к её сердцу, через балкон он уходит, проникнув и изменив всё в глубинах её души.
Сэмпл: http://sendfile.su/944790
Качество видео: DVDRip
Формат видео: AVI
Видео: XviD, 2049 Кбит/с, 720x400, 25,000 кадров/сек
Аудио: AC3, 6 ch, 256 Кбит/с, 48,0 КГц

MediaInfo

I:\Параллельные миры\Paralleljnye.miry.2013.O.DVDRip.1400Mb.avi
General
Complete name : I:\Параллельные миры\Paralleljnye.miry.2013.O.DVDRip.1400Mb.avi
Format : AVI
Format/Info : Audio Video Interleave
File size : 1.37 GiB
Duration : 1h 24mn
Overall bit rate : 2 316 Kbps
Writing application : VirtualDubMod 1.5.10.3 | www.virtualdub-fr.org || (build 2550/release)
Writing library : VirtualDubMod build 2550/release
Video #0
ID : 0
Format : MPEG-4 Visual
Format profile : Advanced Simple@L5
Format settings, BVOP : 2
Format settings, QPel : No
Format settings, GMC : No warppoints
Format settings, Matrix : Default (MPEG)
Codec ID : XVID
Codec ID/Hint : XviD
Duration : 1h 24mn
Bit rate : 2 050 Kbps
Width : 720 pixels
Height : 400 pixels
Display aspect ratio : 16:9
Frame rate : 25.000 fps
Color space : YUV
Chroma subsampling : 4:2:0
Bit depth : 8 bits
Scan type : Progressive
Compression mode : Lossy
Bits/(Pixel*Frame) : 0.285
Stream size : 1.21 GiB (89%)
Writing library : XviD 1.2.1 (UTC 2008-12-04)
Audio #1
ID : 1
Format : AC-3
Format/Info : Audio Coding 3
Mode extension : CM (complete main)
Format settings, Endianness : Big
Codec ID : 2000
Duration : 1h 24mn
Bit rate mode : Constant
Bit rate : 256 Kbps
Channel count : 6 channels
Channel positions : Front: L C R, Side: L R, LFE
Sampling rate : 48.0 KHz
Bit depth : 16 bits
Compression mode : Lossy
Stream size : 155 MiB (11%)
Alignment : Split accross interleaves
Interleave, duration : 40 ms (1.00 video frame)
Interleave, preload duration : 500 ms

Скриншот c названием фильма

Скриншоты

Скачать

Скачать торрент!

Как скачивать? · Что такое торрент? · Рейтинг и ограничения

Сайт не распространяет и не хранит электронные версии произведений, а лишь предоставляет доступ к создаваемому пользователями каталогу ссылок на торрент-файлы, которые содержат только списки хеш-сумм

[Профиль] [ЛС]
Показать сообщения:    
Ответить на тему

Текущее время: Сегодня 05:04

Часовой пояс: GMT + 4



Вы не можете начинать темы
Вы не можете отвечать на сообщения
Вы не можете редактировать свои сообщения
Вы не можете удалять свои сообщения
Вы не можете голосовать в опросах
Вы не можете прикреплять файлы к сообщениям
Вы не можете скачивать файлы