Начало / Inception (Кристофер Нолан / Christopher Nolan) [2010, США, Великобритания, фантастика, боевик, триллер, драма, детектив, BDRemux 1080p] Dub + 2xDVO + 2xAVO + Dub Ukr + Original Eng + Subs (multi)

Ответить на тему
 
Автор Сообщение

user ®

Стаж: 7 лет 7 месяцев

Сообщений: 20008

Пост Пост: #1 от 22-Фев-2014 19:25

[Цитировать]

Начало / Inception
«Твой разум - место преступления»
- Страна: США, Великобритания / Legendary Pictures, Syncopy, Warner Bros. Pictures
Жанр: фантастика, боевик, триллер, драма, детектив
Год выпуска: 2010
Продолжительность: 02:28:07
Перевод 1: Профессиональный (дублированный) лицензия CEE
Перевод 2: Профессиональный (двухголосый закадровый) "Кубик в Кубе"
Перевод 3: Профессиональный (двухголосый закадровый) "BBC Saint-Petersburg"
Перевод 4: Авторский (одноголосый закадровый) А. Ю. Гаврилов
Перевод 5: Авторский (одноголосый закадровый) Ю. Сербин
Перевод 6: Украинский (профессиональный дублированный) лицензия CEE
Cубтитры: Rus BD (forced+full) + Rus Voronine (forced+full+full SDH) + Eng (full+full SDH)
Оригинальная аудиодорожка: английский
Режиссёр: Кристофер Нолан / Christopher Nolan
В ролях: Леонардо ДиКаприо, Джозеф Гордон-Левитт, Эллен Пейдж, Том Харди, Кен Ватанабе, Киллиан Мёрфи, Марион Котийяр, Дилип Рао, Том Беренджер, Майкл Кейн, Пит Постлетуэйт, Лукас Хаас, Клер Джир, Тейлор Джир, Тохору Масамуне, Эрл Кэмерон.
Описание: Кобб — талантливый вор, лучший из лучших в опасном искусстве извлечения: он крадет ценные секреты из глубин подсознания во время сна, когда человеческий разум наиболее уязвим. Редкие способности Кобба сделали его ценным игроком в привычном к предательству мире промышленного шпионажа, но они же превратили его в извечного беглеца и лишили всего, что он когда-либо любил.
И вот у Кобба появляется шанс исправить ошибки. Его последнее дело может вернуть все назад, но для этого ему нужно совершить невозможное — инициацию. Вместо идеальной кражи Кобб и его команда спецов должны будут провернуть обратное. Теперь их задача — не украсть идею, а внедрить ее. Если у них получится, это и станет идеальным преступлением.
Но никакое планирование или мастерство не могут подготовить команду к встрече с опасным противником, который, кажется, предугадывает каждый их ход. Врагом, увидеть которого мог бы лишь Кобб.-Рейтинг
imdb.com: 8.80 (924 971)
kinopoisk.ru: 8.790 (284 199)
MPAA: - детям до 13 лет просмотр не желателен-Сэмпл: http://rusfolder.com/32489806-Тип релиза: BDRemux 1080p
Контейнер: MKV
Видео: H.264/AVC, 1920x1080 (16:9), 23.976 fps, 24014 kbps
Аудио 1: AC3, 3/2 (L,C,R,l,r) + LFE ch / 48 kHz / 16-bit / 640 kbps (Rus Dub)
Аудио 2: DTS-HD MA, 5.1 / 48 kHz / 24-bit / 3738 kbps (DTS Core: 5.1 / 48 kHz / 24-bit /1509 kbps) (DVO "Кубик в Кубе")
Аудио 3: DTS-HD MA, 5.1 / 48 kHz / 24-bit / 3747 kbps (DTS Core: 5.1 / 48 kHz / 24-bit /1509 kbps) (DVO "BBC Saint-Petersburg")
Аудио 4: DTS-HD MA, 5.1 / 48 kHz / 24-bit / 3732 kbps (DTS Core: 5.1 / 48 kHz / 24-bit /1509 kbps) (AVO Гаврилов)
Аудио 5: DTS-HD MA, 5.1 / 48 kHz / 24-bit / 3724 kbps (DTS Core: 5.1 / 48 kHz / 24-bit /1509 kbps) (AVO Сербин)
Аудио 6: AC3, 3/2 (L,C,R,l,r) + LFE ch / 48 kHz / 16-bit / 640 kbps (Ukr Dub)
Аудио 7: DTS-HD MA, 5.1 / 48 kHz / 24-bit / 3689 kbps (DTS Core: 5.1 / 48 kHz / 24-bit /1509 kbps) (Original Eng)
Формат субтитров: softsub (SRT)
-

MediaInfo

General
Unique ID : 199787731154685231397879381408155164847 (0x964DB7A73638240BB089B06FDC9FE0AF)
Complete name : D:\Nachalo.2010.VC-1.BDRemux.1080p.mkv
Format : Matroska
Format version : Version 2
File size : 45.5 GiB
Duration : 2h 28mn
Overall bit rate mode : Variable
Overall bit rate : 43.9 Mbps
Movie name : HANSMER
Encoded date : UTC 2012-09-06 06:08:37
Writing application : mkvmerge v5.0.1 ('Es ist Sommer') built on Oct 9 2011 11:55:43
Writing library : libebml v1.2.2 + libmatroska v1.3.0
Video
ID : 1
Format : VC-1
Format profile : Advanced@L3
Codec ID : V_MS/VFW/FOURCC / WVC1
Codec ID/Hint : Microsoft
Duration : 2h 28mn
Bit rate : 33.9 Mbps
Width : 1 920 pixels
Height : 1 080 pixels
Display aspect ratio : 16:9
Frame rate mode : Constant
Frame rate : 23.976 fps
Chroma subsampling : 4:2:0
Bit depth : 8 bits
Scan type : Progressive
Compression mode : Lossy
Bits/(Pixel*Frame) : 0.682
Stream size : 35.1 GiB (77%)
Title : Inception.2010.Blu-ray.1080p.VC-1 @ 24014 kbps
Language : English
Default : No
Forced : No
Audio #1
ID : 2
Format : AC-3
Format/Info : Audio Coding 3
Mode extension : CM (complete main)
Format settings, Endianness : Big
Codec ID : A_AC3
Duration : 2h 28mn
Bit rate mode : Constant
Bit rate : 640 Kbps
Channel(s) : 6 channels
Channel positions : Front: L C R, Side: L R, LFE
Sampling rate : 48.0 KHz
Bit depth : 16 bits
Compression mode : Lossy
Stream size : 678 MiB (1%)
Title : Rus DUB AC3 @ 640 kbps
Language : Russian
Default : Yes
Forced : Yes
Audio #2
ID : 3
Format : DTS
Format/Info : Digital Theater Systems
Format profile : MA / Core
Codec ID : A_DTS
Duration : 2h 28mn
Bit rate mode : Variable
Bit rate : 1 651 Kbps / 1 510 Kbps
Channel(s) : 6 channels
Channel positions : Front: L C R, Side: L R, LFE
Sampling rate : 48.0 KHz
Bit depth : 24 bits
Compression mode : Lossless / Lossy
Title : Rus DVO "Kubik in Kub" DTS-HD MA 5.1 @ 3738 kbps
Language : Russian
Default : No
Forced : No
Audio #3
ID : 4
Format : DTS
Format/Info : Digital Theater Systems
Format profile : MA / Core
Codec ID : A_DTS
Duration : 2h 28mn
Bit rate mode : Variable
Bit rate : 1 561 Kbps / 1 510 Kbps
Channel(s) : 6 channels
Channel positions : Front: L C R, Side: L R, LFE
Sampling rate : 48.0 KHz
Bit depth : 24 bits
Compression mode : Lossless / Lossy
Title : Rus DVO "BBC Saint-Petersburg" DTS-HD MA 5.1 @ 3747 kbps
Language : Russian
Default : No
Forced : No
Audio #4
ID : 5
Format : DTS
Format/Info : Digital Theater Systems
Format profile : MA / Core
Codec ID : A_DTS
Duration : 2h 28mn
Bit rate mode : Variable
Bit rate : 1 561 Kbps / 1 510 Kbps
Channel(s) : 6 channels
Channel positions : Front: L C R, Side: L R, LFE
Sampling rate : 48.0 KHz
Bit depth : 24 bits
Compression mode : Lossless / Lossy
Title : Rus AVO Gavrilov DTS-HD MA 5.1 @ 3732 kbps
Language : Russian
Default : No
Forced : No
Audio #5
ID : 6
Format : DTS
Format/Info : Digital Theater Systems
Format profile : MA / Core
Codec ID : A_DTS
Duration : 2h 28mn
Bit rate mode : Variable
Bit rate : 1 561 Kbps / 1 510 Kbps
Channel(s) : 6 channels
Channel positions : Front: L C R, Side: L R, LFE
Sampling rate : 48.0 KHz
Bit depth : 24 bits
Compression mode : Lossless / Lossy
Title : Rus AVO Serbin DTS-HD MA 5.1 @ 3724 kbps
Language : Russian
Default : No
Forced : No
Audio #6
ID : 7
Format : AC-3
Format/Info : Audio Coding 3
Mode extension : CM (complete main)
Format settings, Endianness : Big
Codec ID : A_AC3
Duration : 2h 28mn
Bit rate mode : Constant
Bit rate : 640 Kbps
Channel(s) : 6 channels
Channel positions : Front: L C R, Side: L R, LFE
Sampling rate : 48.0 KHz
Bit depth : 16 bits
Compression mode : Lossy
Stream size : 678 MiB (1%)
Title : Ukr DUB AC3 @ 640 kbps
Language : Ukrainian
Default : No
Forced : No
Audio #7
ID : 8
Format : DTS
Format/Info : Digital Theater Systems
Format profile : MA / Core
Codec ID : A_DTS
Duration : 2h 28mn
Bit rate mode : Variable
Bit rate : 1 561 Kbps / 1 510 Kbps
Channel(s) : 6 channels
Channel positions : Front: L C R, Side: L R, LFE
Sampling rate : 48.0 KHz
Bit depth : 24 bits
Compression mode : Lossless / Lossy
Title : Eng DTS-HD MA 5.1 @ 3689 kbps
Language : English
Default : No
Forced : No
Text #1
ID : 9
Format : UTF-8
Codec ID : S_TEXT/UTF8
Codec ID/Info : UTF-8 Plain Text
Title : Forsed BD
Language : Russian
Default : No
Forced : No
Text #2
ID : 10
Format : UTF-8
Codec ID : S_TEXT/UTF8
Codec ID/Info : UTF-8 Plain Text
Title : Full BD
Language : Russian
Default : No
Forced : No
Text #3
ID : 11
Format : UTF-8
Codec ID : S_TEXT/UTF8
Codec ID/Info : UTF-8 Plain Text
Title : Forced (Voronine)
Language : Russian
Default : No
Forced : No
Text #4
ID : 12
Format : UTF-8
Codec ID : S_TEXT/UTF8
Codec ID/Info : UTF-8 Plain Text
Title : Full (Voronine)
Language : Russian
Default : No
Forced : No
Text #5
ID : 13
Format : UTF-8
Codec ID : S_TEXT/UTF8
Codec ID/Info : UTF-8 Plain Text
Title : Full SDH (Voronine)
Language : Russian
Default : No
Forced : No
Text #6
ID : 14
Format : UTF-8
Codec ID : S_TEXT/UTF8
Codec ID/Info : UTF-8 Plain Text
Title : Full
Language : English
Default : No
Forced : No
Text #7
ID : 15
Format : UTF-8
Codec ID : S_TEXT/UTF8
Codec ID/Info : UTF-8 Plain Text
Title : Full SDH
Language : English
Default : No
Forced : No
Menu
00:00:00.000 : en:Scene 1
00:11:41.743 : en:Scene 2
00:21:37.338 : en:Scene 3
00:31:20.337 : en:Scene 4
00:41:22.230 : en:Scene 5
00:51:13.737 : en:Scene 6
01:01:21.553 : en:Scene 7
01:10:29.684 : en:Scene 8
01:22:15.597 : en:Scene 9
01:31:52.590 : en:Scene 10
01:40:38.532 : en:Scene 11
01:51:22.175 : en:Scene 12
02:00:54.414 : en:Scene 13
02:10:09.051 : en:Scene 14
02:20:55.447 : en:Scene 15

Скриншоты

Скачать

Скачать торрент!

Как скачивать? · Что такое торрент? · Рейтинг и ограничения

Сайт не распространяет и не хранит электронные версии произведений, а лишь предоставляет доступ к создаваемому пользователями каталогу ссылок на торрент-файлы, которые содержат только списки хеш-сумм

[Профиль] [ЛС]
Показать сообщения:    
Ответить на тему

Текущее время: Сегодня 09:51

Часовой пояс: GMT + 4



Вы не можете начинать темы
Вы не можете отвечать на сообщения
Вы не можете редактировать свои сообщения
Вы не можете удалять свои сообщения
Вы не можете голосовать в опросах
Вы не можете прикреплять файлы к сообщениям
Вы не можете скачивать файлы