Пурпурный дождь / Purple Rain (Альберт Магноли / Albert Magnoli) [1984, США, мюзикл, драма, мелодрама, музыка, BDRip 720p] Dub + Original (Eng) + Sub (Rus, Eng)

Ответить на тему
 
Автор Сообщение

user ®

Стаж: 7 лет 7 месяцев

Сообщений: 20008

Пост Пост: #1 от 20-Фев-2014 06:25

[Цитировать]

Пурпурный дождь / Purple Rain- Страна: США
Жанр: мюзикл, драма, мелодрама, музыка
Год выпуска: 1984
Продолжительность: 01:51:15-Перевод: Профессиональный (полное дублирование)
Оригинальная аудиодорожка №1: English
Оригинальная аудиодорожка №2: English Commentary
Cубтитры: Russian, English, English (SDH), Spanish, French
Навигация по главам: Присутствует-Режиссер: Альберт Магноли / Albert Magnoli
В ролях: Принц, Аполлония Котеро, Моррис Дэй, Ольга Карлатос, Кларенс Уильямс III, Джером Бентон, Билли Спаркс, Джилл Джонс, Charles Huntsberry, Дез Дикерсон-Описание: История жизни, выживания и триумфа, звуковая дорожка самых крутых групп и суперзвезда рока Принц, человек, который живет только музыкой.-imdb.com: 6.30 (9708)
kinopoisk.ru: 6.987 (134)
Download sample-Качество видео: BDRip 720p
Формат видео: MKV-Видео: AVC, 1272x720 (16:9), 23.976 fps, 7 308 Kbps (0.333 bit/pixel)
Аудио №1: 48 kHz, AC3, 3/2 (L,C,R,l,r) + LFE ch, ~384.00 kbps avg | Профессиональный (полное дублирование)
Аудио №2: 48 kHz, AC3, 3/2 (L,C,R,l,r) + LFE ch, ~640.00 kbps avg | English
Аудио №3: 48 kHz, AC3, 2/0 (L,R) ch, ~192.00 kbps avg |English Commentary-

Дополнительно

Сохранены оригинальные чаптеры как на Blu-ray.
За ремукс спасибо dsk71

MediaInfo

General
Unique ID : 173382266969463364091282436870433267905 (0x827035C122014864B4E9067E38B1E0C1)
Complete name : D:\Фильмы\Purple.Rain.1984.720p.BluRay.Rus.2xEng.HDCLUB.mkv
Format : Matroska
Format version : Version 2
File size : 6.76 GiB
Duration : 1h 51mn
Overall bit rate : 8 697 Kbps
Movie name : Purple Rain (1994) - Release for HDCLUB
Encoded date : UTC 2013-11-23 15:05:51
Writing application : mkvmerge v5.7.0 ('The Whirlwind') built on Jul 8 2012 20:08:51
Writing library : libebml v1.2.3 + libmatroska v1.3.0
Video
ID : 1
Format : AVC
Format/Info : Advanced Video Codec
Format profile : High@L4.1
Format settings, CABAC : Yes
Format settings, ReFrames : 9 frames
Codec ID : V_MPEG4/ISO/AVC
Duration : 1h 51mn
Bit rate : 7 308 Kbps
Width : 1 272 pixels
Height : 720 pixels
Display aspect ratio : 16:9
Frame rate mode : Constant
Frame rate : 23.976 fps
Color space : YUV
Chroma subsampling : 4:2:0
Bit depth : 8 bits
Scan type : Progressive
Bits/(Pixel*Frame) : 0.333
Stream size : 5.68 GiB (84%)
Writing library : x264 core 128 r2216kMod 198a7ea
Encoding settings : cabac=1 / ref=9 / deblock=1:-3:-3 / analyse=0x3:0x113 / me=umh / subme=9 / psy=1 / fade_compensate=0.00 / psy_rd=1.10:0.00 / mixed_ref=1 / me_range=16 / chroma_me=1 / trellis=2 / 8x8dct=1 / cqm=0 / deadzone=21,11 / fast_pskip=0 / chroma_qp_offset=-2 / threads=6 / lookahead_threads=1 / sliced_threads=0 / nr=0 / decimate=0 / interlaced=0 / bluray_compat=0 / constrained_intra=0 / bframes=8 / b_pyramid=2 / b_adapt=2 / b_bias=0 / direct=3 / weightb=1 / open_gop=0 / weightp=2 / keyint=250 / keyint_min=23 / scenecut=40 / intra_refresh=0 / rc=crf / mbtree=0 / crf=18.0000 / qcomp=0.70 / qpmin=0 / qpmax=69 / qpstep=4 / ip_ratio=1.30 / pb_ratio=1.20 / aq=2:0.80
Language : English
Default : Yes
Forced : No
Audio #1
ID : 2
Format : AC-3
Format/Info : Audio Coding 3
Mode extension : CM (complete main)
Format settings, Endianness : Big
Codec ID : A_AC3
Duration : 1h 51mn
Bit rate mode : Constant
Bit rate : 384 Kbps
Channel count : 6 channels
Channel positions : Front: L C R, Side: L R, LFE
Sampling rate : 48.0 KHz
Bit depth : 16 bits
Compression mode : Lossy
Stream size : 306 MiB (4%)
Title : |Дубляж|
Language : Russian
Default : Yes
Forced : No
Audio #2
ID : 3
Format : AC-3
Format/Info : Audio Coding 3
Mode extension : CM (complete main)
Format settings, Endianness : Big
Codec ID : A_AC3
Duration : 1h 51mn
Bit rate mode : Constant
Bit rate : 640 Kbps
Channel count : 6 channels
Channel positions : Front: L C R, Side: L R, LFE
Sampling rate : 48.0 KHz
Bit depth : 16 bits
Compression mode : Lossy
Stream size : 509 MiB (7%)
Language : English
Default : No
Forced : No
Audio #3
ID : 4
Format : AC-3
Format/Info : Audio Coding 3
Format profile : Dolby Digital
Mode extension : CM (complete main)
Format settings, Endianness : Big
Codec ID : A_AC3
Duration : 1h 51mn
Bit rate mode : Constant
Bit rate : 192 Kbps
Channel count : 2 channels
Channel positions : Front: L R
Sampling rate : 48.0 KHz
Bit depth : 16 bits
Compression mode : Lossy
Stream size : 153 MiB (2%)
Title : |Commentary|
Language : English
Default : No
Forced : No
Text #1
ID : 5
Format : UTF-8
Codec ID : S_TEXT/UTF8
Codec ID/Info : UTF-8 Plain Text
Language : Russian
Default : No
Forced : No
Text #2
ID : 6
Format : UTF-8
Codec ID : S_TEXT/UTF8
Codec ID/Info : UTF-8 Plain Text
Title : SDH
Language : English
Default : No
Forced : No
Text #3
ID : 7
Format : UTF-8
Codec ID : S_TEXT/UTF8
Codec ID/Info : UTF-8 Plain Text
Language : English
Default : No
Forced : No
Text #4
ID : 8
Format : UTF-8
Codec ID : S_TEXT/UTF8
Codec ID/Info : UTF-8 Plain Text
Language : Spanish
Default : No
Forced : No
Text #5
ID : 9
Format : UTF-8
Codec ID : S_TEXT/UTF8
Codec ID/Info : UTF-8 Plain Text
Language : French
Default : No
Forced : No
Menu
00:00:00.000 : en:Chapter 1
00:08:16.788 : en:Chapter 2
00:11:03.663 : en:Chapter 3
00:12:08.019 : en:Chapter 4
00:16:11.846 : en:Chapter 5
00:19:06.562 : en:Chapter 6
00:23:45.841 : en:Chapter 7
00:25:11.927 : en:Chapter 8
00:28:37.090 : en:Chapter 9
00:32:26.820 : en:Chapter 10
00:37:47.265 : en:Chapter 11
00:44:14.902 : en:Chapter 12
00:45:37.568 : en:Chapter 13
00:47:17.460 : en:Chapter 14
00:50:18.224 : en:Chapter 15
00:52:58.592 : en:Chapter 16
00:57:16.224 : en:Chapter 17
01:00:32.838 : en:Chapter 18
01:04:59.312 : en:Chapter 19
01:07:38.304 : en:Chapter 20
01:09:35.463 : en:Chapter 21
01:12:34.392 : en:Chapter 22
01:16:49.897 : en:Chapter 23
01:21:06.278 : en:Chapter 24
01:27:31.163 : en:Chapter 25
01:36:23.778 : en:Chapter 26
01:41:23.828 : en:Chapter 27
01:45:45.756 : en:Chapter 28

Скриншоты

Скачать

Скачать торрент!

Как скачивать? · Что такое торрент? · Рейтинг и ограничения

Сайт не распространяет и не хранит электронные версии произведений, а лишь предоставляет доступ к создаваемому пользователями каталогу ссылок на торрент-файлы, которые содержат только списки хеш-сумм

[Профиль] [ЛС]
Показать сообщения:    
Ответить на тему

Текущее время: Сегодня 13:51

Часовой пояс: GMT + 4



Вы не можете начинать темы
Вы не можете отвечать на сообщения
Вы не можете редактировать свои сообщения
Вы не можете удалять свои сообщения
Вы не можете голосовать в опросах
Вы не можете прикреплять файлы к сообщениям
Вы не можете скачивать файлы