Папа / Papa (Джи-сён Хань / Ji-Seung Han) [2012, Корея Южная, США, комедия, драма, музыкальный, семейный, DVDRip] (ФСГ Мания) + Sub Rus

Ответить на тему
 
Автор Сообщение

user ®

Стаж: 13 лет

Сообщений: 15071

Пост Пост: #1 от 15-Фев-2014 15:00

[Цитировать]

Папа / Papa
Страна: Корея Южная, США
Жанр: комедия, драма, музыкальный, семейный
Год выпуска: 2012
Продолжительность: 1:56:43
Перевод: Субтитры ФСГ Мания
Cубтитры: русские
Оригинальная аудиодорожка: корейский
Режиссер: Джи-сён Хань / Ji-Seung Han
В ролях: Пак Ён У, Ара Го, Анджела Азар, Майкл Энтони МакМиллон, Мэг Келли, Паркер Таунсенд, Жюстен Алперт, Дэниэл Хенни
Описание: Преследуя свою пропавшую певицу, менеджер Чжун Су попадает прямо в Америку. Он не может вернуться назад, ведь натворил делов и в Корее ему не очень рады. Чтобы остаться в США, мужчина вступает в фиктивный брак и в итоге вынужден растить шестерых совершенно разных детей. Детей он не очень жалует, да и дети не сильно счастливы от его присутствия, но ради обоюдной выгоды, они начинают жить вместе. К тому же, Чжун Су обнаруживает, что старшая дочь Джун замечательно поёт. Естественно, в нём просыпается желание сделать из неё звезду и, благодаря ей, заработать кучу денег.
Сэмпл: http://multi-up.com/951002
Качество видео: DVDRip
Формат видео: AVI
Видео: XviD, 720х304, 2.35:1, 23.976 fps, 2 055 Kbps
Аудио: AC-3, 48.0 KHz, 448 Kbps, 6 channels
Формат субтитров: softsub (SRT)
Доп. информация о субтитрах: Фансаб-группа Мания

Примеры субтитров

1
00:01:03,090 --> 00:01:04,860
Почему я в Америке?
2
00:01:05,690 --> 00:01:07,500
Я уже говорил...
3
00:01:08,390 --> 00:01:10,330
Ради дела!
4
00:01:12,650 --> 00:01:19,330
Я здесь, чтобы вернуть обратно свою работу, ты знал?
5
00:01:20,590 --> 00:01:22,200
13 место в чартах!
6
00:01:22,200 --> 00:01:23,700
1 - в рейтинге альбомов!
7
00:01:23,700 --> 00:01:25,030
Лучшая начинающая звезда!
8
00:01:25,090 --> 00:01:29,630
Она новичок, который заставил Ли Хё Ли уйти в отставку, засранец!
9
00:01:29,690 --> 00:01:32,930
Где Мила? Где ее носит?
10
00:01:33,000 --> 00:01:35,530
Скажи мне, где она, козел!
11
00:01:42,790 --> 00:01:44,730
Я почти все вернул
12
00:01:46,290 --> 00:01:49,430
Но потерпел неудачу из-за проблем со здоровьем
13
00:01:56,290 --> 00:01:59,760
Потом я влюбился
14
00:02:01,230 --> 00:02:06,170
Она была лучиком света во тьме моего отчаяния
15
00:02:08,230 --> 00:02:09,560
Давай поженимся
16
00:02:13,530 --> 00:02:15,600
Я заплачу тебе 5 000$
17
00:02:15,660 --> 00:02:18,100
И еще 5, когда закончатся проблемы с иммиграцией
18
00:02:19,930 --> 00:02:23,660
Я не знаю, что ты слышал, но все это неправда
19
00:02:25,230 --> 00:02:26,660
Да?
20
00:02:26,730 --> 00:02:31,000
Ты была замужем 5 раз, потому что влюблялась во всех их?
21
00:02:31,730 --> 00:02:33,760
Если это из-за денег...
22
00:02:33,830 --> 00:02:35,500
Мы сходили с ума друг по другу
23
00:02:35,500 --> 00:02:37,530
По любви или нет,
24
00:02:37,530 --> 00:02:40,000
я никогда не выйду за такого придурка, как ты
25
00:02:40,330 --> 00:02:42,460
Однажды мы чуть не расстались...
26
00:02:42,530 --> 00:02:44,660
Черт!
27
00:02:44,730 --> 00:02:46,160
...как и другие пары
28
00:02:48,030 --> 00:02:51,960
Тот, кто больше любит, и теряет больше
29
00:02:52,430 --> 00:02:53,960
Помоги мне
30
00:02:54,030 --> 00:02:57,060
Я покойник, если вернусь в Корею

MediaInfo

Format : AVI
Format/Info : Audio Video Interleave
Format profile : OpenDML
File size : 2.05 GiB
Duration : 1h 56mn
Overall bit rate : 2 515 Kbps
Writing application : VirtualDubMod 1.5.10.2 (build 2540/release)
Writing library : VirtualDubMod build 2540/release
Video
ID : 0
Format : MPEG-4 Visual
Format profile : Advanced Simple@L5
Format settings, BVOP : 2
Format settings, QPel : No
Format settings, GMC : No warppoints
Format settings, Matrix : Default (H.263)
Codec ID : XVID
Codec ID/Hint : XviD
Duration : 1h 56mn
Bit rate : 2 055 Kbps
Width : 720 pixels
Height : 304 pixels
Display aspect ratio : 2.35:1
Frame rate : 23.976 fps
Color space : YUV
Chroma subsampling : 4:2:0
Bit depth : 8 bits
Scan type : Progressive
Compression mode : Lossy
Bits/(Pixel*Frame) : 0.392
Stream size : 1.68 GiB (82%)
Writing library : XviD 1.2.1 (UTC 2008-12-04)
Audio
ID : 1
Format : AC-3
Format/Info : Audio Coding 3
Mode extension : CM (complete main)
Format settings, Endianness : Big
Codec ID : 2000
Duration : 1h 56mn
Bit rate mode : Constant
Bit rate : 448 Kbps
Channel(s) : 6 channels
Channel positions : Front: L C R, Side: L R, LFE
Sampling rate : 48.0 KHz
Bit depth : 16 bits
Compression mode : Lossy
Stream size : 374 MiB (18%)
Alignment : Split accross interleaves
Interleave, duration : 42 ms (1.00 video frame)
Interleave, preload duration : 500 ms

Скриншот c названием фильма

Скачать

Скачать торрент! Папа / Papa (Джи-сён Хань / Ji-Seung Han) [2012, Корея Южная, США, комедия, драма, музыкальный, семейный, DVDRip] (ФСГ Мания) + Sub Rus

Как скачивать? · Что такое торрент? · Рейтинг и ограничения

Сайт не распространяет и не хранит электронные версии произведений, а лишь предоставляет доступ к создаваемому пользователями каталогу ссылок на торрент-файлы, которые содержат только списки хеш-сумм

[Профиль] [ЛС]
Показать сообщения:    
Ответить на тему

Текущее время: Сегодня 18:43

Часовой пояс: GMT + 4



Вы не можете начинать темы
Вы не можете отвечать на сообщения
Вы не можете редактировать свои сообщения
Вы не можете удалять свои сообщения
Вы не можете голосовать в опросах
Вы не можете прикреплять файлы к сообщениям
Вы не можете скачивать файлы