Старый мастер / The Old Master / The Intrigue / Master of Kung Fu / Shi fu chu ma (Джозеф Куо / Joseph Kuo) [1979, Гонконг, боевые искусства, DVDRip] VO (Виктор Береговых)

Ответить на тему
 
Автор Сообщение

user ®

Стаж: 13 лет

Сообщений: 15071

Пост Пост: #1 от 14-Фев-2014 20:55

[Цитировать]

Старый мастер / The Old Master / The Intrigue / Master of Kung Fu / Shi fu chu ma
Страна: Гонконг
Жанр: боевые искусства
Год выпуска: 1979
Продолжительность: 01:28:12
Перевод: Одноголосый закадровый Виктор Береговых
Cубтитры: нет
Режиссер: Джозеф Куо / Joseph Kuo
В ролях: Юй Чжаньюань, Билл Лоу, Ван Юншэн, Дэвид Педернера, Старр Хестер, Нг Сиунам, Пау Качхун
Описание: Мастер Тин Шэнь открывает школу боевых искусств в Нью-Йорке, но его школа не пользуется популярностью, поскольку основная страсть мастера Тина - азартные игры. Заняв большую сумму, мастер Тин проигрывает ее на скачках и теперь кредиторы грозятся забрать школу. И тут ему в голову приходит хитрый план. Он вызывает из Гонконга своего учителя и рассказывает старику, что все соседние школы бросают ему вызовы. Гордый старик, считающий, что поражение ученика равносильно собственному поражению, обещает помочь и даёт люлей лучшим бойцам из всех соседних школ, а хитрый Тин Шэнь зарабатывает на этом деньги, делая ставку на победу учителя. Но очень скоро старик начинает понимать, что им просто манипулируют... (В. Береговых)
Благодарность: За перевод, озвучивание и описание благодарность выражается Виктору Береговых (Jet). Автор рипа - MaksBuf123.
Сэмпл: http://multi-up.com/950874
Качество видео: DVDRip
Формат видео: AVI
Видео: 704x272 (2.59:1), 23.976 fps, XviD build 64 ~1996 kbps avg, 0.44 bit/pixel
Аудио: 48 kHz, MPEG Layer 3, 2 ch, ~192.00 kbps avg

MediaInfo

Format : AVI
Format/Info : Audio Video Interleave
File size : 1,35 Гбайт
Duration : 1 ч. 28 м.
Overall bit rate : 2198 Кбит/сек
Writing application : VirtualDubMod 1.5.10.2 (build 2540/release)
Writing library : VirtualDubMod build 2540/release
Видео
ID : 0
Format : MPEG-4 Visual
Format profile : Advanced Simple@L5
Format settings, BVOP : 1
Format settings, QPel : Нет
Format settings, GMC : Без точки перехода
Format settings, Matrix : Default (MPEG)
Codec ID : XVID
Codec ID/Hint : XviD
Duration : 1 ч. 28 м.
Bit rate : 1996 Кбит/сек
Width : 704 пикселя
Height : 272 пикселя
Display aspect ratio : 2,588
Frame rate : 23,976 кадра/сек
Color space : YUV
Chroma subsampling : 4:2:0
Bit depth : 8 бит
Scan type : Прогрессивная
Compression mode : С потерями
Bits/(Pixel*Frame) : 0.435
Stream size : 1,23 Гбайт (91%)
Writing library : XviD 64
Аудио
ID : 1
Format : MPEG Audio
Format version : Version 1
Format profile : Layer 3
Codec ID : 55
Codec ID/Hint : MP3
Duration : 1 ч. 28 м.
Bit rate mode : Постоянный
Bit rate : 192 Кбит/сек
Channel(s) : 2 канала
Sampling rate : 48,0 КГц
Compression mode : С потерями
Delay relative to video : 16 мс.
Stream size : 121 Мбайт (9%)
Alignment : Разделение по промежуткам
Interleave, duration : 42 мс. (1,00 видеокадр)
Interleave, preload duration : 500 мс.

Скриншот c названием фильма

Скриншоты

Скачать

Скачать торрент! Старый мастер / The Old Master / The Intrigue / Master of Kung Fu / Shi fu chu ma (Джозеф Куо / Joseph Kuo) [1979, Гонконг, боевые искусства, DVDRip] VO (Виктор Береговых)

Как скачивать? · Что такое торрент? · Рейтинг и ограничения

Сайт не распространяет и не хранит электронные версии произведений, а лишь предоставляет доступ к создаваемому пользователями каталогу ссылок на торрент-файлы, которые содержат только списки хеш-сумм

[Профиль] [ЛС]
Показать сообщения:    
Ответить на тему

Текущее время: Сегодня 17:35

Часовой пояс: GMT + 4



Вы не можете начинать темы
Вы не можете отвечать на сообщения
Вы не можете редактировать свои сообщения
Вы не можете удалять свои сообщения
Вы не можете голосовать в опросах
Вы не можете прикреплять файлы к сообщениям
Вы не можете скачивать файлы