Телекинез / Кэрри / Carrie (Кимберли Пирс / Kimberly Peirce) [2013, США, триллер, драма, BDRip 1080p] [Extended Cut] Dub CEE (Rus, Ukr) + AVO (Дольский) + VO (lord666) + Sub (Rus, Eng) + Original (Eng)

Ответить на тему
 
Автор Сообщение

user ®

Стаж: 7 лет 7 месяцев

Сообщений: 20008

Пост Пост: #1 от 11-Фев-2014 22:55

[Цитировать]

Телекинез / Кэрри / CarrieРасширенная версия Страна: США
Студия: Metro-Goldwyn-Mayer (MGM), Screen Gems, Misher Films
Жанр: триллер, драма
Год выпуска: 2013
Продолжительность: 01:40:56
Перевод 1: (Русский) Профессиональный (дублированный) CEE Blu-ray со вставкой AVO (А. Дольский) на альтернативную концовку
Перевод 2: Авторский (одноголосый закадровый) Андрей Дольский
Перевод 3: Одноголосый закадровый lord666
Cубтитры: русские форсированные на надписи, русские CEE Blu-ray, русские Notabenoid (исправленные), английские (+SDH)
Оригинальная аудиодорожка: английский
Режиссер: Кимберли Пирс / Kimberly Peirce
В ролях: Клои Грейс Мориц, Джулианна Мур, Джуди Грир, Портия Даблдэй, Габриэлла Уайлд, Алекс Расселл, Зои Белкин, Энсел Эльгорт, Саманта Вайнштейн, Карисса Стрэйн, Кэти Стрэйн, Бэрри Шебака Хенли
Описание: Невзрачная старшеклассница по имени Кэрри с рождения обладает способностями телекинеза. Давление со стороны фанатично религиозной мамочки и постоянные издевки сверстников лишь способствуют развитию ее сверхъестественных способностей. На выпускном одноклассники решают жестоко подшутить над ней, что приводит к фатальным последствиям.
IMDB: 6.1/10
Сэмпл: Скачать
Тип релиза: BDRip 1080p (Skazhutin@SbR)
Контейнер: MKV
Видео: MPEG-4 AVC / 1918x816 / 17000 kbps / 23.976 fps / 2.35:1 / High Profile 4.1
Аудио 1: Русский, DTS / 5.1 / 48 kHz / 768 kbps (Русский дубляж)
Аудио 2: Украинский, AC3 / 5.1 / 48 kHz / 448 kbps / DN -4dB (Украинский дубляж)
Аудио 3: Русский, DTS / 5.1 / 48 kHz / 1536 kbps (А. Дольский)
Аудио 4: Русский, AC3 / 5.1 / 48 kHz / 640 kbps / DN -4dB (lord666)
Аудио 5: Английский, DTS / 5.1 / 48 kHz / 1536 kbps (Original)
Формат субтитров: подключаемые (SRT)
Навигация по главам: есть

Скриншоты / Source vs Encode (vs Scene)



Release info

RELEASE NAME..: Carrie.2013.1080p.BluRay.DTS.x264-SbR
RELEASE SIZE..: 13.2 GiB
RUNTIME.......: 01:40:56
VIDEO CODEC...: x264, 2pass, L4.1
FRAMERATE.....: 23.976 fps
BITRATE.......: 17000 kbps
RESOLUTION....: 1918x816
AUDIO.........: English DTS 5.1 @ 1509 kbps
AUDIO.........: English AC3 2.0 @ 224 kbps |Director Commentary|
SUBTITLES.....: Eng (SDH), Eng, Fre (captions), Rus, Spa (forced), Spa
CHAPTER.......: Included
SOURCE........: Carrie 2013 1080p Blu-ray AVC DTS-HD MA 5.1-HDWinG (27936 kbps)
RELEASE DATE..: 08.01.2014
ENCODER.......: Skazhutin

MediaInfo

General
Unique ID : 228868798612231280329338112108142392265 (0xAC2E86FA66C5002D948F88DBC999F3C9)
Complete name : D:\Carrie.2013.Extended.Cut.1080p.BluRay.4xRus.Eng.x264-SbR.mkv
Format : Matroska
Format version : Version 2
File size : 15.4 GiB
Duration : 1h 40mn
Overall bit rate : 21.9 Mbps
Movie name : Carrie (2013) Alternative Ending
Encoded date : UTC 2014-02-11 13:00:55
Writing application : mkvmerge v5.8.0 ('No Sleep / Pillow') built on Sep 2 2012 15:37:04
Writing library : libebml v1.2.3 + libmatroska v1.3.0
Attachment : Yes
Video
ID : 1
Format : AVC
Format/Info : Advanced Video Codec
Format profile : High@L4.1
Format settings, CABAC : Yes
Format settings, ReFrames : 5 frames
Codec ID : V_MPEG4/ISO/AVC
Duration : 1h 40mn
Bit rate : 17.0 Mbps
Width : 1 918 pixels
Height : 816 pixels
Display aspect ratio : 2.35:1
Frame rate mode : Constant
Frame rate : 23.976 fps
Color space : YUV
Chroma subsampling : 4:2:0
Bit depth : 8 bits
Scan type : Progressive
Bits/(Pixel*Frame) : 0.453
Stream size : 11.7 GiB (76%)
Title : Skazhutin@SbR
Writing library : x264 core 140 r2377+40 929f149 tMod [8-bit@4:2:0 X86_64]
Encoding settings : cabac=1 / ref=5 / deblock=1:-3:-3 / analyse=0x3:0x113 / me=umh / subme=11 / psy=1 / fade_compensate=0.00 / psy_rd=1.10:0.05 / mixed_ref=1 / me_range=48 / chroma_me=1 / trellis=2 / 8x8dct=1 / cqm=0 / deadzone=21,11 / fast_pskip=0 / chroma_qp_offset=-3 / threads=12 / lookahead_threads=3 / sliced_threads=0 / nr=0 / decimate=1 / interlaced=0 / bluray_compat=0 / constrained_intra=0 / fgo=0 / bframes=10 / b_pyramid=2 / b_adapt=2 / b_bias=0 / direct=3 / weightb=1 / open_gop=0 / weightp=2 / keyint=250 / keyint_min=23 / scenecut=40 / intra_refresh=0 / rc_lookahead=60 / rc=2pass / mbtree=0 / bitrate=17000 / ratetol=1.0 / qcomp=0.80 / qpmin=0:0:0 / qpmax=69:69:69 / qpstep=4 / cplxblur=20.0 / qblur=0.5 / vbv_maxrate=62500 / vbv_bufsize=78125 / nal_hrd=none / filler=0 / ip_ratio=1.25 / pb_ratio=1.15 / aq=4:0.80 / aq-sensitivity=11.00 / aq-factor=1.00:1.00:1.00 / aq2=1:0.60 / aq2-sensitivity=9.00 / aq2-factor=1.00:1.00:1.00 / aq3=1:[0.60:0.60]:[0.60:0.60]:[0.60:0.60]:[0.60:0.60] / aq3-sensitivity=10.00 / aq3-factor=[1.00:1.00]:[1.00:1.00]:[1.00:1.00] / aq3-boundary=192:64:24
Language : English
Default : Yes
Forced : No
Color primaries : BT.709
Transfer characteristics : BT.709
Matrix coefficients : BT.709
Audio #1
ID : 2
Format : DTS
Format/Info : Digital Theater Systems
Codec ID : A_DTS
Duration : 1h 40mn
Bit rate mode : Constant
Bit rate : 755 Kbps
Channel(s) : 6 channels
Channel positions : Front: L C R, Side: L R, LFE
Sampling rate : 48.0 KHz
Bit depth : 24 bits
Compression mode : Lossy
Stream size : 545 MiB (3%)
Title : Blu-ray CEE (Dub+VO)
Language : Russian
Default : Yes
Forced : No
Audio #2
ID : 3
Format : AC-3
Format/Info : Audio Coding 3
Mode extension : CM (complete main)
Format settings, Endianness : Big
Codec ID : A_AC3
Duration : 1h 40mn
Bit rate mode : Constant
Bit rate : 448 Kbps
Channel(s) : 6 channels
Channel positions : Front: L C R, Side: L R, LFE
Sampling rate : 48.0 KHz
Bit depth : 16 bits
Compression mode : Lossy
Stream size : 323 MiB (2%)
Title : Blu-ray CEE (Dub+VO)
Language : Ukrainian
Default : No
Forced : No
Audio #3
ID : 4
Format : DTS
Format/Info : Digital Theater Systems
Codec ID : A_DTS
Duration : 1h 40mn
Bit rate mode : Constant
Bit rate : 1 510 Kbps
Channel(s) : 6 channels
Channel positions : Front: L C R, Side: L R, LFE
Sampling rate : 48.0 KHz
Bit depth : 24 bits
Compression mode : Lossy
Stream size : 1.06 GiB (7%)
Title : AVO A.Dolsky
Language : Russian
Default : No
Forced : No
Audio #4
ID : 5
Format : AC-3
Format/Info : Audio Coding 3
Mode extension : CM (complete main)
Format settings, Endianness : Big
Codec ID : A_AC3
Duration : 1h 40mn
Bit rate mode : Constant
Bit rate : 640 Kbps
Channel(s) : 6 channels
Channel positions : Front: L C R, Side: L R, LFE
Sampling rate : 48.0 KHz
Bit depth : 16 bits
Compression mode : Lossy
Stream size : 462 MiB (3%)
Title : VO lord666
Language : Russian
Default : No
Forced : No
Audio #5
ID : 6
Format : DTS
Format/Info : Digital Theater Systems
Codec ID : A_DTS
Duration : 1h 40mn
Bit rate mode : Constant
Bit rate : 1 510 Kbps
Channel(s) : 6 channels
Channel positions : Front: L C R, Side: L R, LFE
Sampling rate : 48.0 KHz
Bit depth : 24 bits
Compression mode : Lossy
Stream size : 1.06 GiB (7%)
Title : Original
Language : English
Default : No
Forced : No
Text #1
ID : 7
Format : UTF-8
Codec ID : S_TEXT/UTF8
Codec ID/Info : UTF-8 Plain Text
Title : Forced (fixed)
Language : Russian
Default : Yes
Forced : No
Text #2
ID : 8
Format : UTF-8
Codec ID : S_TEXT/UTF8
Codec ID/Info : UTF-8 Plain Text
Title : Blu-ray CEE (fixed)
Language : Russian
Default : No
Forced : No
Text #3
ID : 9
Format : UTF-8
Codec ID : S_TEXT/UTF8
Codec ID/Info : UTF-8 Plain Text
Title : Notabenoid
Language : Russian
Default : No
Forced : No
Text #4
ID : 10
Format : UTF-8
Codec ID : S_TEXT/UTF8
Codec ID/Info : UTF-8 Plain Text
Title : Full
Language : English
Default : No
Forced : No
Text #5
ID : 11
Format : UTF-8
Codec ID : S_TEXT/UTF8
Codec ID/Info : UTF-8 Plain Text
Title : SDH
Language : English
Default : No
Forced : No
Menu
00:00:00.000 : en:Chapter 1
00:04:14.545 : en:Chapter 2
00:06:37.855 : en:Chapter 3
00:10:07.648 : en:Chapter 4
00:12:03.681 : en:Chapter 5
00:14:46.176 : en:Chapter 6
00:18:50.462 : en:Chapter 7
00:23:15.060 : en:Chapter 8
00:26:51.401 : en:Chapter 9
00:30:50.974 : en:Chapter 10
00:32:27.862 : en:Chapter 11
00:36:18.092 : en:Chapter 12
00:38:20.339 : en:Chapter 13
00:41:47.755 : en:Chapter 14
00:46:22.196 : en:Chapter 15
00:51:01.850 : en:Chapter 16
00:53:09.853 : en:Chapter 17
00:55:47.677 : en:Chapter 18
01:00:52.065 : en:Chapter 19
01:04:02.338 : en:Chapter 20
01:07:03.310 : en:Chapter 21
01:09:38.382 : en:Chapter 22
01:13:05.381 : en:Chapter 23
01:18:25.158 : en:Chapter 24
01:22:46.711 : en:Chapter 25
01:25:17.862 : en:Chapter 26
01:29:25.360 : en:Chapter 27
01:33:36.402 : en:Chapter 28

Дополнительно

  • Перевод А. Дольского выполнен благодаря пользователям ресурса E180. Спасибо его участникам.
  • В альтернативной расширенной версии фильма не дублирована финальная сцена с 01:33:35, сделана вставка Андрея Дольского. За работу над авторской и дублированными дорожками спасибо Anoobis (HDClub).
Скачать

Скачать торрент!

Как скачивать? · Что такое торрент? · Рейтинг и ограничения

Сайт не распространяет и не хранит электронные версии произведений, а лишь предоставляет доступ к создаваемому пользователями каталогу ссылок на торрент-файлы, которые содержат только списки хеш-сумм

[Профиль] [ЛС]
Показать сообщения:    
Ответить на тему

Текущее время: Сегодня 17:48

Часовой пояс: GMT + 4



Вы не можете начинать темы
Вы не можете отвечать на сообщения
Вы не можете редактировать свои сообщения
Вы не можете удалять свои сообщения
Вы не можете голосовать в опросах
Вы не можете прикреплять файлы к сообщениям
Вы не можете скачивать файлы