Расскажи мне обо мне (Александр Щурихин) [2011, Мелодрама, SATRip]

Ответить на тему
 
Автор Сообщение

user ®

Стаж: 7 лет 7 месяцев

Сообщений: 20008

Пост Пост: #1 от 11-Фев-2014 16:35

[Цитировать]

Расскажи мне обо мне
Жанр: Мелодрама
Год выпуска: 2011
Продолжительность: 1:32:22
Режиссёр: Александр Щурихин
В ролях: Надежда Бахтина, Александр Никитин (IV), Евгений Коряковский
Описание: Из-за ревности к новому сотруднику жених девушки Дарьи, имеющий доступ к соответствующим технологиям, стирает ей память и инсценирует ее гибель во время пожара.
Теперь ее зовут Анна и о своей предыдущей жизни она не помнит ничего. Случайная встреча на улице Москвы с Артемом, из-за которого все и началось, зарождает в ней сомнения по поводу правдивости того, что говорят ей окружающие о ее жизни.
Шаг за шагом правда проясняется и героине приходится бороться за свое прошлое и, вместе с ним, за будущее…
Сэмпл: http://multi-up.com/949770
Качество видео: SATRip
Формат видео: AVI
Видео: XviD MPEG-4 , 704x400 (1.76:1) , 25 fps , 1974 kbps avg
Аудио: AC3,48kHz,160.00 kbps avg, 2/0 (L,R) ch

MediaInfo

General
Complete name : D:\Расскажи мне обо мне 2011.avi
Format : AVI
Format/Info : Audio Video Interleave
File size : 1.38 GiB
Duration : 1h 32mn
Overall bit rate : 2 145 Kbps
Writing library : VirtualDub build 35390/release
Video
ID : 0
Format : MPEG-4 Visual
Format settings, BVOP : No
Format settings, QPel : No
Format settings, GMC : No warppoints
Format settings, Matrix : Default (H.263)
Codec ID : XVID
Codec ID/Hint : XviD
Duration : 1h 32mn
Bit rate : 1 975 Kbps
Width : 704 pixels
Height : 400 pixels
Display aspect ratio : 16:9
Frame rate : 25.000 fps
Color space : YUV
Chroma subsampling : 4:2:0
Bit depth : 8 bits
Scan type : Progressive
Compression mode : Lossy
Bits/(Pixel*Frame) : 0.281
Stream size : 1.27 GiB (92%)
Audio
ID : 1
Format : AC-3
Format/Info : Audio Coding 3
Mode extension : CM (complete main)
Format settings, Endianness : Big
Codec ID : 2000
Duration : 1h 32mn
Bit rate mode : Constant
Bit rate : 160 Kbps
Channel(s) : 2 channels
Channel positions : Front: L R
Sampling rate : 48.0 KHz
Bit depth : 16 bits
Compression mode : Lossy
Stream size : 106 MiB (7%)
Alignment : Aligned on interleaves
Interleave, duration : 40 ms (1.00 video frame)
Interleave, preload duration : 512 ms

Скриншоты

Скачать

Скачать торрент!

Как скачивать? · Что такое торрент? · Рейтинг и ограничения

Сайт не распространяет и не хранит электронные версии произведений, а лишь предоставляет доступ к создаваемому пользователями каталогу ссылок на торрент-файлы, которые содержат только списки хеш-сумм

[Профиль] [ЛС]
Показать сообщения:    
Ответить на тему

Текущее время: Сегодня 22:29

Часовой пояс: GMT + 4



Вы не можете начинать темы
Вы не можете отвечать на сообщения
Вы не можете редактировать свои сообщения
Вы не можете удалять свои сообщения
Вы не можете голосовать в опросах
Вы не можете прикреплять файлы к сообщениям
Вы не можете скачивать файлы