Лабиринт фавна / El laberinto del fauno / Pan\'s Labyrinth (Гильермо дель Торо / Guillermo del Toro) [2006, США, Испания, Мексика, драма, фэнтези, военный, BDRip 1080p] Dub + DVO + MVO + AVO + Sub Rus, Eng + Original Spa

Ответить на тему
 
Автор Сообщение

user ®

Стаж: 7 лет 7 месяцев

Сообщений: 20008

Пост Пост: #1 от 10-Фев-2014 01:10

[Цитировать]

Лабиринт фавна / El laberinto del fauno / Pan's Labyrinth- Страна: США, Испания, Мексика
Студия: Telecinco
Жанр: драма, фэнтези, военный
Год выпуска: 2006
Продолжительность: 01:58:51-Перевод 1: Профессиональный (дублированный) студия "Сонотек"
Перевод 2: Профессиональный (двухголосый закадровый) П.Гланц и И.Королева
Перевод 3: Профессиональный (многоголосый закадровый)
Перевод 4: Авторский (одноголосый закадровый) Владимир Королёв
Cубтитры: русские (текст дубляжа), английские
Оригинальная аудиодорожка: испанский-Режиссер: Гильермо дель Торо / Guillermo del Toro
В ролях: Ивана Бакеро, Серхи Лопес, Марибель Верду, Даг Джонс, Ариадна Хиль, Алекс Ангуло, Маноло Соло, Сесар Веа, Рожер Казамажор, Иван Массаге, Гонсало Уриарте и др.-Описание: Испания, 1944 год. Группа повстанцев сражается с фашистами в горных лесах северной Наварры. Офелия - 10-летняя одинокая и мечтательная девочка - переезжает со своей беременной матерью Кармен в военный лагерь отчима капитана Видаля. Видаль - высокомерный и жестокий офицер армии Франко, который должен очистить район от повстанцев любой ценой. Офелия, увлеченная волшебными сказками, обнаруживает старинный заброшенный лабиринт неподалеку от дома...
«Лабиринт Фавна» (исп. El laberinto del fauno) — мрачная драма мексиканского режиссёра Гильермо дель Торо по мотивам произведений Артура Мейчена, вторая часть его трилогии о гражданской войне в Испании, начатой фильмом«Хребет дьявола».-Сэмпл: http://www.sendspace.com/file/h2muob-Тип релиза: BDRip 1080p (EbP)
Контейнер: MKV
Видео: MPEG-4 AVC / 18800 kbps / 1920 x 1038 / 23.976 fps / 1.85:1
Аудио 1: Russian / AC3 5.1 / 48 kHz / 448 kbps (Дублированный, студия "Сонотек")
Аудио 2: Russian / DTS 5.1 / 48 kHz / 1509 kbps / 24 bit (Двухголосый закадровый, П.Гланц и И.Королева)
Аудио 3: Russian / AC3 5.1 / 48 kHz / 384 kbps (Многоголосый закадровый)
Аудио 4: Russian / DTS 5.1 / 48 kHz / 755 kbps (Авторский одноголосый, Владимир Королёв)
Аудио 5: Spanish / DTS 5.1 / 48 kHz / 1509 kbps / 24 bit
Аудио 6: English / AC3 2.0 / 48 kHz / 224 kbps (Commentary by Guillermo del Toro)
Формат субтитров: softsub (SRT)
Навигация по главам: есть- -

MediaInfo

Общее
Уникальный идентификатор                 : 248840271608480874199737008553393300664 (0xBB34E49EAA04FDA0AAE1260FAA6AA4B8)
Полное имя                               : F:\El laberinto del fauno.2006.BD-Rip.HYBRID.1080p-EbP.mkv
Формат                                   : Matroska
Версия формата                           : Version 4 / Version 2
Размер файла                             : 20,0 Гбайт
Продолжительность                        : 1 ч. 58 м.
Общий поток                              : 24,1 Мбит/сек
Дата кодирования                         : UTC 2014-02-06 18:16:37
Программа кодирования                    : mkvmerge v6.6.0 ('The Edge Of The In Between') built on Dec  1 2013 17:55:00
Библиотека кодирования                   : libebml v1.3.0 + libmatroska v1.4.1
Видео
Идентификатор                            : 1
Формат                                   : AVC
Формат/Информация                        : Advanced Video Codec
Профиль формата                          : High@L4.1
Параметр CABAC формата                   : Да
Параметр ReFrames формата                : 4 кадра
Идентификатор кодека                     : V_MPEG4/ISO/AVC
Продолжительность                        : 1 ч. 58 м.
Битрейт                                  : 18,8 Мбит/сек
Ширина                                   : 1920 пикселей
Высота                                   : 1038 пикселей
Соотношение сторон                       : 1,85:1
Режим частоты кадров                     : Постоянный
Частота кадров                           : 23,976 кадра/сек
Цветовое пространство                    : YUV
Субдискретизация насыщенности            : 4:2:0
Битовая глубина                          : 8 бит
Тип развёртки                            : Прогрессивная
Бит/(Пиксели*Кадры)                      : 0.393
Размер потока                            : 15,6 Гбайт (78%)
Заголовок                                : El laberinto del fauno
Библиотека кодирования                   : x264 core 130 r2273 b3065e6
Настройки программы                      : cabac=1 / ref=4 / deblock=1:-3:-3 / analyse=0x3:0x113 / me=tesa / subme=10 / psy=1 / psy_rd=1.15:0.00 / mixed_ref=1 / me_range=16 / chroma_me=1 / trellis=2 / 8x8dct=1 / cqm=0 / deadzone=21,11 / fast_pskip=0 / chroma_qp_offset=-2 / threads=12 / lookahead_threads=2 / sliced_threads=0 / nr=0 / decimate=0 / interlaced=0 / bluray_compat=0 / constrained_intra=0 / bframes=8 / b_pyramid=2 / b_adapt=2 / b_bias=0 / direct=3 / weightb=1 / open_gop=0 / weightp=2 / keyint=250 / keyint_min=23 / scenecut=40 / intra_refresh=0 / rc=crf / mbtree=0 / crf=17.0 / qcomp=0.70 / qpmin=0 / qpmax=69 / qpstep=4 / ip_ratio=1.30 / pb_ratio=1.30 / aq=1:0.80
Язык                                     : Spanish
Default                                  : Да
Forced                                   : Нет
Аудио #1
Идентификатор                            : 2
Формат                                   : AC-3
Формат/Информация                        : Audio Coding 3
Расширение режима                        : CM (complete main)
Параметр Endianness формата              : Big
Идентификатор кодека                     : A_AC3
Продолжительность                        : 1 ч. 58 м.
Вид битрейта                             : Постоянный
Битрейт                                  : 448 Кбит/сек
Каналы                                   : 6 каналов
Расположение каналов                     : Front: L C R, Side: L R, LFE
Частота                                  : 48,0 КГц
Битовая глубина                          : 16 бит
Метод сжатия                             : С потерями
Размер потока                            : 381 Мбайт (2%)
Заголовок                                : Дубляж [AC3 5.1 @ 448 kbps]
Язык                                     : Russian
Default                                  : Да
Forced                                   : Нет
Аудио #2
Идентификатор                            : 3
Формат                                   : DTS
Формат/Информация                        : Digital Theater Systems
Режим                                    : 16
Параметр Endianness формата              : Big
Идентификатор кодека                     : A_DTS
Продолжительность                        : 1 ч. 58 м.
Вид битрейта                             : Постоянный
Битрейт                                  : 1509 Кбит/сек
Каналы                                   : 6 каналов
Расположение каналов                     : Front: L C R, Side: L R, LFE
Частота                                  : 48,0 КГц
Битовая глубина                          : 24 бит
Метод сжатия                             : С потерями
Размер потока                            : 1,25 Гбайт (6%)
Заголовок                                : DVO, П.Гланц и И.Королева [DTS 5.1 @ 1509 kbps]
Язык                                     : Russian
Default                                  : Нет
Forced                                   : Нет
Аудио #3
Идентификатор                            : 4
Формат                                   : AC-3
Формат/Информация                        : Audio Coding 3
Расширение режима                        : CM (complete main)
Параметр Endianness формата              : Big
Идентификатор кодека                     : A_AC3
Продолжительность                        : 1 ч. 58 м.
Вид битрейта                             : Постоянный
Битрейт                                  : 384 Кбит/сек
Каналы                                   : 6 каналов
Расположение каналов                     : Front: L C R, Side: L R, LFE
Частота                                  : 48,0 КГц
Битовая глубина                          : 16 бит
Метод сжатия                             : С потерями
Размер потока                            : 327 Мбайт (2%)
Заголовок                                : MVO [AC3 5.1 @ 384 kbps]
Язык                                     : Russian
Default                                  : Нет
Forced                                   : Нет
Аудио #4
Идентификатор                            : 5
Формат                                   : DTS
Формат/Информация                        : Digital Theater Systems
Режим                                    : 16
Параметр Endianness формата              : Big
Идентификатор кодека                     : A_DTS
Продолжительность                        : 1 ч. 58 м.
Вид битрейта                             : Постоянный
Битрейт                                  : 755 Кбит/сек
Каналы                                   : 6 каналов
Расположение каналов                     : Front: L C R, Side: L R, LFE
Частота                                  : 48,0 КГц
Битовая глубина                          : 24 бит
Метод сжатия                             : С потерями
Размер потока                            : 642 Мбайт (3%)
Заголовок                                : AVO, В.Королёв [DTS 5.1 @ 755 kbps]
Язык                                     : Russian
Default                                  : Нет
Forced                                   : Нет
Аудио #5
Идентификатор                            : 6
Формат                                   : DTS
Формат/Информация                        : Digital Theater Systems
Режим                                    : 16
Параметр Endianness формата              : Big
Идентификатор кодека                     : A_DTS
Продолжительность                        : 1 ч. 58 м.
Вид битрейта                             : Постоянный
Битрейт                                  : 1509 Кбит/сек
Каналы                                   : 6 каналов
Расположение каналов                     : Front: L C R, Side: L R, LFE
Частота                                  : 48,0 КГц
Битовая глубина                          : 24 бит
Метод сжатия                             : С потерями
Размер потока                            : 1,25 Гбайт (6%)
Заголовок                                : [DTS 5.1 @ 1509 kbps]
Язык                                     : Spanish
Default                                  : Нет
Forced                                   : Нет
Аудио #6
Идентификатор                            : 7
Формат                                   : AC-3
Формат/Информация                        : Audio Coding 3
Расширение режима                        : CM (complete main)
Параметр Endianness формата              : Big
Идентификатор кодека                     : A_AC3
Продолжительность                        : 1 ч. 58 м.
Вид битрейта                             : Постоянный
Битрейт                                  : 224 Кбит/сек
Каналы                                   : 2 канала
Расположение каналов                     : Front: L R
Частота                                  : 48,0 КГц
Битовая глубина                          : 16 бит
Метод сжатия                             : С потерями
Размер потока                            : 191 Мбайт (1%)
Заголовок                                : Commentary by Guillermo del Toro [AC3 2.0 @ 224 kbps]
Язык                                     : English
Default                                  : Нет
Forced                                   : Нет
Текст #1
Идентификатор                            : 8
Формат                                   : UTF-8
Идентификатор кодека                     : S_TEXT/UTF8
Идентификатор кодека/Информация          : UTF-8 Plain Text
Заголовок                                : Текст дубляжа
Язык                                     : Russian
Default                                  : Нет
Forced                                   : Нет
Текст #2
Идентификатор                            : 9
Формат                                   : UTF-8
Идентификатор кодека                     : S_TEXT/UTF8
Идентификатор кодека/Информация          : UTF-8 Plain Text
Язык                                     : English
Default                                  : Нет
Forced                                   : Нет
Меню
00:00:00.000                             : en:There Lived A Princess
00:05:35.126                             : en:Captain Vidal
00:11:14.173                             : en:The Magic Rose
00:14:16.063                             : en:Fathers And Sons
00:17:54.030                             : en:Into The Labyrinth
00:24:36.224                             : en:Mercedes
00:30:56.937                             : en:The Giant Toad
00:38:17.835                             : en:A New, Clean Spain
00:42:40.723                             : en:Take Me To The Labyrinth
00:46:00.172                             : en:Our Daily Bread In Franco's Spain
00:48:00.917                             : en:Lullaby
00:55:21.732                             : en:The Pale Man
01:02:20.359                             : en:The Maquis
01:07:41.846                             : en:Skirmish In The Hills
01:12:37.683                             : en:Torture
01:16:28.259                             : en:You Failed!
01:20:26.568                             : en:Magic Does Not Exist
01:24:56.504                             : en:Take Me With You
01:31:12.463                             : en:Just A Woman
01:36:11.845                             : en:Vidal's Wound
01:42:48.532                             : en:The Blood Of An Innocent
01:52:04.671                             : en:End Titles

Скриншоты


Доп.информация

RELEASE DATE..: 04/12/2013
RELEASE SIZE..: 16.5 GB
RUNTIME.......: 1:58:51
VIDEO CODEC...: x264, CRF, L4.1
FRAMERATE.....: 23.976 fps
BITRATE.......: 18.9 Mbps
RESOLUTION....: 1920x1038
AUDIO 1.......: Spanish DD5.1 @ 640 kb/s (sfse)
Audio from the UK Special Edition BD was used.
AUDIO 2.......: English AAC2.0 (q=0.25) Commentary by director Guillermo del Toro
SUBTITLES.....: English .srt
CHAPTER.......: Included (named)
SOURCE 1......: 1080p Blu-ray NORDIC AVC DTS-HD MA-hymen
SOURCE 2......: 1080p Blu-ray UK VC-1 DTS-HD MA 5.1
Used for spliced, or excessive blocking scenes.
NOTES.........: Trimmed to fit the UK BD runtime. The glitch from the NOR BD
(00:41:03) was spliced out. Various scenes, mostly the beginning
of the movie, with banding/blocking were either spliced out
using the UK BD, which hasconsiderably less blocking, or filtered
with gradfun2dbmod.
* Дорожка №2 получена наложением чистого голоса на центр декодированного DTS-HD.
* Отдельная благодарность sergey_n.
Скачать

Скачать торрент!

Как скачивать? · Что такое торрент? · Рейтинг и ограничения

Сайт не распространяет и не хранит электронные версии произведений, а лишь предоставляет доступ к создаваемому пользователями каталогу ссылок на торрент-файлы, которые содержат только списки хеш-сумм

[Профиль] [ЛС]
Показать сообщения:    
Ответить на тему

Текущее время: Сегодня 22:36

Часовой пояс: GMT + 4



Вы не можете начинать темы
Вы не можете отвечать на сообщения
Вы не можете редактировать свои сообщения
Вы не можете удалять свои сообщения
Вы не можете голосовать в опросах
Вы не можете прикреплять файлы к сообщениям
Вы не можете скачивать файлы