Лучшие из кунг-фу Шаолиня / 18 бронзовых бойцов Шаолиня / The Best of Shaolin Kung Fu / Wan fa gui zong yi Shao Lin (Чань Сиупан / Chan Siu-Pang) [1976, Гонконг, боевые искусства, DVDRip] AVO (Сергей Кузнецов)

Ответить на тему
 
Автор Сообщение

user ®

Стаж: 11 лет

Сообщений: 15151

Пост Пост: #1 от 09-Фев-2014 03:35

[Цитировать]

Лучшие из кунг-фу Шаолиня / 18 бронзовых бойцов Шаолиня / The Best of Shaolin Kung Fu / Wan fa gui zong yi Shao Lin
Страна: Гонконг
Жанр: боевые искусства
Год выпуска: 1976
Продолжительность: 01:15:53
Перевод: Авторский (одноголосый закадровый) Сергей Кузнецов
Cубтитры: нет
Режиссер: Чань Сиупан / Chan Siu-Pang
В ролях: Клифф Лок, Картер Вонг, Бай Ин, Филлип Ко, Дорис Лун, Цинь Чжиминь, Цзинь Ган, Ма Чан, Чань Сиупан, Лу Пин, Юань Сэнь
Описание: В Китае продолжается междоусобица, династия Цинь свергает династию Хань. Император от династии Цинь Чен Лунг имеет информацию, что, вероятно, он сын недавно скончавшегося императора от династии Хань. Император умер, остались только два человека, тоже владеющие этой информацией. Чен Лунг со своим верным телохранителем инкогнито отправляется в путь на поиск этих свидетелей. Но об этом родстве узнает и сын покойного императора Чен Кам Лоу, он ищет встречи с новоявленным братом, и готов предоставить ему доказательства их родства, в надежде, что у брата возродятся родственные чувства, и он поможет возрождению династии Хань. Нелегкий путь ожидает его, доказательства хранятся в монастыре Шаолинь, и не каждый может получить доступ к ним. Но надо ли это Чен Лунгу, он ведь итак император...
Доп. информация: Автор рипа - Masejed.
Сэмпл: http://multi-up.com/948976
Качество видео: DVDRip
Формат видео: AVI
Видео: 704x288 (2.44:1), 25 fps, XviD build 50 ~2375 kbps avg, 0.47 bit/pixel
Аудио: 48 kHz, AC3 Dolby Digital, 2/0 (L,R) ch, ~192 kbps

MediaInfo

Format : AVI
Format/Info : Audio Video Interleave
File size : 1,37 Гбайт
Duration : 1 ч. 15 м.
Overall bit rate : 2578 Кбит/сек
Writing application : VirtualDubMod 1.5.10.2 (build 2540/release)
Writing library : VirtualDubMod build 2540/release
Видео
ID : 0
Format : MPEG-4 Visual
Format profile : Advanced Simple@L5
Format settings, BVOP : 1
Format settings, QPel : Нет
Format settings, GMC : Без точки перехода
Format settings, Matrix : Default (MPEG)
Codec ID : XVID
Codec ID/Hint : XviD
Duration : 1 ч. 15 м.
Bit rate : 2376 Кбит/сек
Width : 704 пикселя
Height : 288 пикселей
Display aspect ratio : 2,40:1
Frame rate : 25,000 кадров/сек
Color space : YUV
Chroma subsampling : 4:2:0
Bit depth : 8 бит
Scan type : Прогрессивная
Compression mode : С потерями
Bits/(Pixel*Frame) : 0.469
Stream size : 1,26 Гбайт (92%)
Writing library : XviD 1.2.1 (UTC 2008-12-04)
Аудио
ID : 1
Format : AC-3
Format/Info : Audio Coding 3
Mode extension : CM (complete main)
Format settings, Endianness : Big
Codec ID : 2000
Duration : 1 ч. 15 м.
Bit rate mode : Постоянный
Bit rate : 192 Кбит/сек
Channel(s) : 2 канала
Channel positions : Front: L R
Sampling rate : 48,0 КГц
Bit depth : 16 бит
Compression mode : С потерями
Stream size : 104 Мбайт (7%)
Alignment : Разделение по промежуткам
Interleave, duration : 40 мс. (1,00 видеокадр)
Interleave, preload duration : 500 мс.

Скриншот c названием фильма

Скриншоты

Скачать

Скачать торрент! Лучшие из кунг-фу Шаолиня / 18 бронзовых бойцов Шаолиня / The Best of Shaolin Kung Fu / Wan fa gui zong yi Shao Lin (Чань Сиупан / Chan Siu-Pang) [1976, Гонконг, боевые искусства, DVDRip] AVO (Сергей Кузнецов)

Как скачивать? · Что такое торрент? · Рейтинг и ограничения

Сайт не распространяет и не хранит электронные версии произведений, а лишь предоставляет доступ к создаваемому пользователями каталогу ссылок на торрент-файлы, которые содержат только списки хеш-сумм

[Профиль] [ЛС]
Показать сообщения:    
Ответить на тему

Текущее время: Сегодня 05:59

Часовой пояс: GMT + 4



Вы не можете начинать темы
Вы не можете отвечать на сообщения
Вы не можете редактировать свои сообщения
Вы не можете удалять свои сообщения
Вы не можете голосовать в опросах
Вы не можете прикреплять файлы к сообщениям
Вы не можете скачивать файлы