Железная обезьяна 2 / Iron Monkey 2 / Duel at the Tiger Village / Tough Guy / Iron Monkey Strikes Back / Jue dou Lao Hu Zhuang (Бао Сюэли / Pao Hsueh-Li) [1978, Гонконг, боевые искусства, DVDRip] AVO (Сергей Визгунов)

Ответить на тему
 
Автор Сообщение

user ®

Стаж: 11 лет

Сообщений: 15151

Пост Пост: #1 от 08-Фев-2014 18:50

[Цитировать]

Железная обезьяна 2 / Iron Monkey 2 / Duel at the Tiger Village / Tough Guy / Iron Monkey Strikes Back / Jue dou Lao Hu Zhuang
Страна: Гонконг
Жанр: боевые искусства
Год выпуска: 1978
Продолжительность: 01:27:09
Перевод: Авторский (одноголосый закадровый) Сергей Визгунов
Cубтитры: нет
Режиссер: Бао Сюэли / Pao Hsueh-Li
В ролях: Чен Куан-Тай, Чан Синг, Цзя Лин, Ши Чжунтянь, Тянь Е, Инь Чжунчэн, Цяо Линь, Чжан Фанся, Ли Миньлан
Описание: Во дворце совершено убийство императорской жены. Для расследования приглашен лучший следователь, Холодная Голова. По оставленному на месте преступления ножу опознан и схвачен его хозяин — охотник Ли Сан. Подозреваемый отказывается признавать свою причастность к преступлению, более того, его тайно убивают в камере. Император доволен результатом расследования, но следователь понимает, что Ли Сан был всего лишь пешкой в чьей-то крупной игре. Холодная Голова решает расследовать это дело до конца, не смотря на явное недовольство императора.
Доп. информация: Автор рипа - ХВАНГ (МИТЯЙ).
Качество видео: DVDRip
Формат видео: AVI
Видео: 720x352 (2.05:1), 25 fps, XviD build 50 ~2063 kbps avg, 0.33 bit/pixel
Аудио: 48 kHz, AC3 Dolby Digital, 2/0 (L,R) ch, ~192 kbps

MediaInfo

Format : AVI
Format/Info : Audio Video Interleave
File size : 1,38 Гбайт
Duration : 1 ч. 27 м.
Overall bit rate : 2262 Кбит/сек
Writing application : VirtualDubMod 1.5.4.1 (build 2178/release)
Writing library : VirtualDubMod build 2178/release
Видео
ID : 0
Format : MPEG-4 Visual
Format profile : Advanced Simple@L5
Format settings, BVOP : 1
Format settings, QPel : Нет
Format settings, GMC : Без точки перехода
Format settings, Matrix : Выборочная
Codec ID : XVID
Codec ID/Hint : XviD
Duration : 1 ч. 27 м.
Bit rate : 2063 Кбит/сек
Width : 720 пикселей
Height : 352 пикселя
Display aspect ratio : 2,045
Frame rate : 25,000 кадров/сек
Color space : YUV
Chroma subsampling : 4:2:0
Bit depth : 8 бит
Scan type : Прогрессивная
Compression mode : С потерями
Bits/(Pixel*Frame) : 0.326
Stream size : 1,26 Гбайт (91%)
Writing library : XviD 1.2.1 (UTC 2008-12-04)
Аудио
ID : 1
Format : AC-3
Format/Info : Audio Coding 3
Mode extension : CM (complete main)
Format settings, Endianness : Big
Codec ID : 2000
Duration : 1 ч. 27 м.
Bit rate mode : Постоянный
Bit rate : 192 Кбит/сек
Channel(s) : 2 канала
Channel positions : Front: L R
Sampling rate : 48,0 КГц
Bit depth : 16 бит
Compression mode : С потерями
Stream size : 120 Мбайт (8%)
Alignment : Разделение по промежуткам
Interleave, duration : 96 мс. (2,40 видеокадра)
Interleave, preload duration : 96 мс.

Скриншот c названием фильма

Скриншоты

Скачать

Скачать торрент! Железная обезьяна 2 / Iron Monkey 2 / Duel at the Tiger Village / Tough Guy / Iron Monkey Strikes Back / Jue dou Lao Hu Zhuang (Бао Сюэли / Pao Hsueh-Li) [1978, Гонконг, боевые искусства, DVDRip] AVO (Сергей Визгунов)

Как скачивать? · Что такое торрент? · Рейтинг и ограничения

Сайт не распространяет и не хранит электронные версии произведений, а лишь предоставляет доступ к создаваемому пользователями каталогу ссылок на торрент-файлы, которые содержат только списки хеш-сумм

[Профиль] [ЛС]
Показать сообщения:    
Ответить на тему

Текущее время: Сегодня 17:27

Часовой пояс: GMT + 4



Вы не можете начинать темы
Вы не можете отвечать на сообщения
Вы не можете редактировать свои сообщения
Вы не можете удалять свои сообщения
Вы не можете голосовать в опросах
Вы не можете прикреплять файлы к сообщениям
Вы не можете скачивать файлы