Одноклассники.ru: НаCLICKай удачу (Павел Худяков) [2013, Комедия, фантастика, мелодрама, DVDRip]

Ответить на тему
 
Автор Сообщение

user ®

Стаж: 7 лет 7 месяцев

Сообщений: 20008

Пост Пост: #1 от 08-Фев-2014 15:40

[Цитировать]

Одноклассники.ru: НаCLICKай удачу
Жанр: Комедия, фантастика, мелодрама
Год выпуска: 2013
Продолжительность: 01:35:49
Режиссёр: Павел Худяков
В ролях: Пётр Фёдоров, Фёдор Бондарчук, Корнелия Поляк, Сергей Друзьяк, Тимати, Снуп Догг, Сергей Никоненко, Александр Ревва, Ольга Тумайкина, Семён Стругачев, Жанна Фриске, Ксения Собчак
Описание: Круто, когда есть кнопка, на которую жмёшь, и всё становится по-твоему! Именно такая попала в руки молодому креативщику и тотальному неудачнику Лёше. Теперь у него высокооплачиваемая работа, дорогая машина, стильный гардероб и, конечно, идеальная девушка. Достаточно одного клика! Просто надо знать, куда жать!... А начиналось всё так: в жизни талантливого копирайтера Лёши наступила чёрная полоса. Всё, за что он берётся заканчивается полным провалом. Даже самые благие намерения, например спасение собаки из рук хулиганов оборачивается катастрофой - Лёшу жестоко избивают. Только лучший друг Димон и спасённый Лешей пёс Снуппи остаются рядом с ним и готовы идти до конца. Всё равно дальше падать некуда. Всем троим срочно нужно чудо. Спасение приходит неожиданно: Лёша хочет вернуть Снуппи хозяину и попадает в очень необычное место, в котором всем заправляет парень по имени Лил Вейн. За спасение любимого пса он вручает Лёше ноутбук. В руках нашего героя оказывается настоящее чудо: стоит написать статус в «Одноклассниках» и самые заветные мечты становятся реальностью. Девушки, дорогие машины, роскошный дом - для волшебного ноутбука нет ничего невозможного. Главная цель Лёши - устроиться на работу в престижное рекламное агентство и заслужить любовь красавицы Маши. Первое желание исполняется мгновенно, а вот со вторым есть проблемы. Маша встречается с редкостным негодяем Федором, который ненавидит Лёшу с самой первой встречи. Более того, Фёдор – Лёшин шеф и правая рука главы рекламного агентства Виктора Чернышёва. Лёша всё больше и больше увлекается чудесами ноутбука: теперь его лучший друг - Тимати, он в одно мгновение может изменить политику целого государства и создать популяцию амурских тигров в Сибири...

Качество видео: DVDRip (Исходник: DVD-9)
Формат видео: AVI
Видео: XviD, 640x272 (2.35:1), 25 кадр/с, 888 Кбит/с,
Аудио: Русский, MP3, 48000 Гц, 128 Кбит/с, 2 канала (Стерео)

Автор рипа - ivandubskoj

MediaInfo

General
Complete name : Odnoklassniki.ru.Naklikay.Uda4u.2013.DVDRip.700MB.avi
Format : AVI
Format/Info : Audio Video Interleave
File size : 701 MiB
Duration : 1h 35mn
Overall bit rate : 1 024 Kbps
Movie name : Одноклассники.ru: НаCLICKай удачу (2013) DVDRip
Recorded date : 08.02.2014
Writing application : VirtualDubMod 1.5.10.3 (build 2550/release)
Writing library : VirtualDubMod build 2550/release
Copyright : rip by ivandubskoj
Video
ID : 0
Format : MPEG-4 Visual
Format profile : Advanced Simple@L5
Format settings, BVOP : 1
Format settings, QPel : No
Format settings, GMC : No warppoints
Format settings, Matrix : Default (H.263)
Codec ID : XVID
Codec ID/Hint : XviD
Duration : 1h 35mn
Bit rate : 888 Kbps
Width : 640 pixels
Height : 272 pixels
Display aspect ratio : 2.35:1
Frame rate : 25.000 fps
Color space : YUV
Chroma subsampling : 4:2:0
Bit depth : 8 bits
Scan type : Progressive
Compression mode : Lossy
Bits/(Pixel*Frame) : 0.204
Stream size : 608 MiB (87%)
Writing library : XviD 73
Audio
ID : 1
Format : MPEG Audio
Format version : Version 1
Format profile : Layer 3
Mode : Joint stereo
Codec ID : 55
Codec ID/Hint : MP3
Duration : 1h 35mn
Bit rate mode : Constant
Bit rate : 128 Kbps
Channel(s) : 2 channels
Sampling rate : 48.0 KHz
Compression mode : Lossy
Stream size : 87.7 MiB (13%)
Alignment : Aligned on interleaves
Interleave, duration : 40 ms (1.00 video frame)
Interleave, preload duration : 504 ms
Title : Russian

Скриншот c названием фильма

Скриншоты

Скачать

Скачать торрент!

Как скачивать? · Что такое торрент? · Рейтинг и ограничения

Сайт не распространяет и не хранит электронные версии произведений, а лишь предоставляет доступ к создаваемому пользователями каталогу ссылок на торрент-файлы, которые содержат только списки хеш-сумм

[Профиль] [ЛС]
Показать сообщения:    
Ответить на тему

Текущее время: Сегодня 10:06

Часовой пояс: GMT + 4



Вы не можете начинать темы
Вы не можете отвечать на сообщения
Вы не можете редактировать свои сообщения
Вы не можете удалять свои сообщения
Вы не можете голосовать в опросах
Вы не можете прикреплять файлы к сообщениям
Вы не можете скачивать файлы