Напролом / Lockout (Джеймс Мэтер, Стивен Ст. Леджер / James Mather, Stephen St. Leger) [2012, Франция, фантастика, боевик, BDRip 1080p] [Режиссерская версия / Director\'s Cut] DUB + Original + Sub (Rus, Eng)

Ответить на тему
 
Автор Сообщение

user ®

Стаж: 7 лет 7 месяцев

Сообщений: 20008

Пост Пост: #1 от 07-Фев-2014 00:55

[Цитировать]

Напролом / Lockout- Год выпуска: 2012
Страна: Франция
Выпущено: Europa Corp., Canal+, Cine'+
Жанр: фантастика, боевик, триллер
Продолжительность: 01:35:19-Перевод: Профессиональный дублированный (Лицензия R5)
Оригинальная аудиодорожка: Английский
Субтитры: Русские (Voronin), английские-Режиссер: Джеймс Мэтер, Стивен Ст. Леджер / James Mather, Stephen St. Leger
В ролях: Гай Пирс, Мэгги Грэйс, Винсент Риган, Джозеф Гилган, Ленни Джеймс, Петер Стормаре, Джеки Идо, Тим Плестер, Энн-Соленн Хатте, Марк Танкерсли, Питер Хадсон, Ник Хардин, Дэн Савье, Дамиджан Оклопджич, Боян Перич, Ивэн Моусес II, Грег Де Куир, Томас Келли, Дэрил Фиделак, Миодраг Стеванович, Чарльз Робертсон, Майкл Сопко, Ян Дрон, Ваня Лэйзин, Марко Янжич, Стефан Бузурович, Пит Чеффи, Бояна Брегович, и др.-Описание: Орбитальная станция MS1 — крупнейшая космическая тюрьма, где в анабиозе содержатся тысячи опасных преступников. Ходят слухи, что над погруженными в искусственный сон узниками проводятся противозаконные эксперименты. С расследованием на станцию отправлена комиссия во главе с Эмили Уорнок, дочерью президента США. Неожиданно ситуация выходит из-под контроля, и вся станция оказывается захвачена уголовниками. Спецагент Сноу, несправедливо обвиненный в государственной измене, получает задание проникнуть в самую неприступную тюрьму во Вселенной и спасти Эмили. Это его единственный шанс вернуть себе доброе имя и получить свободу...- -Качество: BDRip 1080p (Blu-Ray Remux (1080p))
Формат: MKV
Видео кодек: H.264
Аудио кодек: AC3
Видео: AVC; x264; 1920х804 (2.35:1), 23.976 кадр/сек, 13250 Кбит/сек, 0.350 bit/pixel
Аудио 1: Rus; DTS; 48,0 КГц; 755 Кбит/сек; 6ch (Front: L, R) DUB (Лицензия R5)
Аудио 2: Eng; DTS; 48,0 КГц; 755 Кбит/сек; 6ch (Front: L, R) Оригинал
Формат субтитров: softsub (SRT)
Сохранены оригинальные чаптеры (главы) Blu-Ray-

ДопInfo

Знаете ли вы, что...
* Главные отрицательные герои — братья Алекс и Хайделл. Алек Хиделл — псевдоним, который использовал Ли Харви Освальд.
* В одной из сцен Сноу отмечает: «Вопреки распространённому мнению, на самом деле я не Гудини». Гай Пирс играл Гарри Гудини в фильме «Смертельный номер» (2007).
* «Крик Вильгельма» звучит в фильме в сцене, где заключенный спотыкается и падает сразу после выхода из стазиса.
* Когда стазисные камеры первый раз открываются, можно видеть как одна из них открывается дважды.
* Когда сценарий был завершен, режиссеры убедили Бессона, что им необходимо полностью «пре-визуализировать» будущий фильм с помощью раскадровки и анимированных моделей героев и декораций.
* Пре-визуализация оказалась чрезвычайно полезна для глав технических департаментов, сумевших благодаря ей получить более четкое представление об особенностях экшн-сцен, а также каскадеров, которые уяснили себе, чего хотят добиться постановщики. А учитывая, что все технические специалисты были разного происхождения — из Бразилии, Ирландии, Франции, Сербии, — пре-визуализация успешно помогла им преодолеть языковой барьер.
* Главным инициатором создания картины выступила французская компания (она же продюсировала ленту), съемки фильма проходили в Сербии, основные роли исполнили англоговорящие актеры, и при этом на проект распространялись ирландские налоговые льготы.
* Часть объектов и декораций сочетала элементы технических конструкций и зеленого экрана — таковы, например, космический полицейский департамент в форме листка клевера, фоном которому служили Земля и космические глубины, или шоссе, где разворачивается погоня на мотоциклах.
* Эпизод в Овальном кабинете был снят на пивоваренном заводе Amstel, расположенном в пригороде сербской столицы.
* В то время как монтаж и цветокоррекция картины проходили во Франции, визуальными эффектами занималась ирландская студия Windmillane.-«Ты уже большая девочка.
Вот тебе яблоко, вот пушка» (с)

Это американское кино от слова «типичное». Типичные герои, типичные ситуации. Он — плохой парень с добрым сердцем, она — дочь президента и благородством вышла похлеще лани, они — злодеи, которые будут все портить. Одно «но». Злодеев — 497 штук.
Для меня это даже не кинцо само по себе, для меня это еще одна вещь, к которой приложил свою знаменитую длань Бессон. И хоть не он непосредственно режиссировал «Напролом», для меня это будет так. Для меня это человек, который связан с любимым «Тринадцатым районом» и смешными «Артуром и минипутами». Поэтому у меня как-то в голове не укладывается, что Бессон может связаться с чем-то НЕ зрелищным.
А уж в «Напроломе» зрелищ за глаза хватает. Спецэффекты, возможно, не сильно впечатляют, но воплощение этой огромной орбитальной тюрьмы, на мой взгляд, гениально. Этажи, лифты, шахты, камеры… и эта громадная дыра посередине. Прямо дух захватывает.
Порадовала развязка, когда мы наконец узнаем, кто подставил нашего героя. Не то чтобы шибко оригинально, но, опять же, помним, что мы говорим о типичном кино. Поэтому не стоит ждать от этого фильма чего-то экстра. Расслабиться поможет, а потому — зачет создателям.
z_ponedelnik 8 из 10-Рейтинг PG-13 - Детям до 13 лет просмотр не желателен

Настоятельное предупреждение родителям. Данный рейтинг получают фильмы,
содержание которых может считаться неприемлемым для детей, не достигших 13-летнего возраста.
В фильме отсутствуют сцены с насилием и «обнажёнкой», но уже могут присутствовать неконкретизированные
эпизоды с наркотиками и слова, связанные с сексом.

MediaInfo

C:\Naprolom.2012.x264.BDRip.1080p.mkv
General
Complete name : C:\Naprolom.2012.x264.BDRip.1080p.mkv
Format : Matroska
File size : 9.83 GiB
Duration : 1h 35mn
Overall bit rate : 14.8 Mbps
Movie name : =MediaClub= by =parravoz=
Encoded date : UTC 2014-02-01 05:51:08
Writing application : mkvmerge v5.8.0 ('No Sleep / Pillow') built on Sep 2 2012 15:37:04
Writing library : libebml v1.2.3 + libmatroska v1.3.0
Cover : Yes
Video #1
ID : 1
Format : AVC
Format/Info : Advanced Video Codec
Format profile : High@L4.1
Format settings, CABAC : Yes
Format settings, ReFrames : 5 frames
Muxing mode : Container profile=Unknown@4.1
Codec ID : V_MPEG4/ISO/AVC
Duration : 1h 35mn
Bit rate : 13.0 Mbps
Nominal bit rate : 13.3 Mbps
Width : 1 920 pixels
Height : 804 pixels
Display aspect ratio : 2.35:1
Frame rate : 23.976 fps
Resolution : 8 bits
Colorimetry : 4:2:0
Scan type : Progressive
Bits/(Pixel*Frame) : 0.350
Stream size : 8.62 GiB (88%)
Title : Naprolom / Lockout
Writing library : x264 core 125 r2200 999b753
Encoding settings : cabac=1 / ref=5 / deblock=1:-3:-3 / analyse=0x3:0x113 / me=tesa / subme=11 / psy=1 / psy_rd=1.75:0.13 / mixed_ref=1 / me_range=48 / chroma_me=1 / trellis=2 / 8x8dct=1 / cqm=0 / deadzone=6,6 / fast_pskip=0 / chroma_qp_offset=-3 / threads=6 / lookahead_threads=1 / sliced_threads=0 / nr=0 / decimate=0 / interlaced=0 / bluray_compat=0 / constrained_intra=0 / bframes=8 / b_pyramid=2 / b_adapt=2 / b_bias=0 / direct=3 / weightb=1 / open_gop=0 / weightp=2 / keyint=240 / keyint_min=23 / scenecut=40 / intra_refresh=0 / rc_lookahead=240 / rc=2pass / mbtree=1 / bitrate=13250 / ratetol=1.0 / qcomp=0.80 / qpmin=0 / qpmax=69 / qpstep=4 / cplxblur=20.0 / qblur=0.5 / vbv_maxrate=38000 / vbv_bufsize=30000 / nal_hrd=none / ip_ratio=1.10 / aq=1:1.10
Audio #2
ID : 2
Format : DTS
Format/Info : Digital Theater Systems
Codec ID : A_DTS
Duration : 1h 35mn
Bit rate mode : Constant
Bit rate : 755 Kbps
Channel(s) : 6 channels
Channel positions : Front: L C R, Surround: L R, LFE
Sampling rate : 48.0 KHz
Resolution : 24 bits
Stream size : 514 MiB (5%)
Title : DUB (License-R5)
Language : Russian
Audio #3
ID : 3
Format : DTS
Format/Info : Digital Theater Systems
Codec ID : A_DTS
Duration : 1h 35mn
Bit rate mode : Constant
Bit rate : 755 Kbps
Channel(s) : 6 channels
Channel positions : Front: L C R, Surround: L R, LFE
Sampling rate : 48.0 KHz
Resolution : 24 bits
Stream size : 514 MiB (5%)
Title : Original
Text #4
ID : 4
Format : UTF-8
Codec ID : S_TEXT/UTF8
Codec ID/Info : UTF-8 Plain Text
Title : Voronin
Language : Russian
Text #5
ID : 5
Format : UTF-8
Codec ID : S_TEXT/UTF8
Codec ID/Info : UTF-8 Plain Text
Title : by _paravoz_

Скриншот с названием фильма

Скриншоты

Скачать

Скачать торрент!

Как скачивать? · Что такое торрент? · Рейтинг и ограничения

Сайт не распространяет и не хранит электронные версии произведений, а лишь предоставляет доступ к создаваемому пользователями каталогу ссылок на торрент-файлы, которые содержат только списки хеш-сумм

[Профиль] [ЛС]
Показать сообщения:    
Ответить на тему

Текущее время: Сегодня 14:28

Часовой пояс: GMT + 4



Вы не можете начинать темы
Вы не можете отвечать на сообщения
Вы не можете редактировать свои сообщения
Вы не можете удалять свои сообщения
Вы не можете голосовать в опросах
Вы не можете прикреплять файлы к сообщениям
Вы не можете скачивать файлы