Король Шаолиня / Королевский боец Шаолинь / The Shaolin Kingboxer / Iron Fists / Tie quan / Quan zhong jian (Карл Мака / Karl Maka) [1979, Гонконг, боевые искусства, VHSRip] AVO (Сергей Кузнецов)

Ответить на тему
 
Автор Сообщение

user ®

Стаж: 11 лет

Сообщений: 15151

Пост Пост: #1 от 06-Фев-2014 21:45

[Цитировать]

Король Шаолиня / Королевский боец Шаолинь / The Shaolin Kingboxer / Iron Fists / Tie quan / Quan zhong jian
Страна: Гонконг
Жанр: боевые искусства
Год выпуска: 1979
Продолжительность: 01:28:23
Перевод: Авторский (одноголосый закадровый) Сергей Кузнецов
Cубтитры: нет
Режиссер: Карл Мака / Karl Maka
В ролях: Чен Куан-Тай, Лау Кар-Вин, Мэн Фэй, Леунг Ка-Ян, Уилсон Тонг, Чэнь Хуэйлоу, Карл Мака, Ван Тайлан, У Ма, Хуан Ха, Ван Юншэн
Описание: Это случилось в конце правления китайской династии Мин… Тунг вместе с предводителем японских пиратов обманом заставляют императора поверить, что армия Чика готовит восстание. Поверив донесению, император даёт приказ казнить всю семью. Последнему оставшемуся в живых, Зингу, удаётся вырваться из рук солдат и скрыться в монастыре Шаолинь, где он начал обучаться искусству единоборств. Тем временем Тунг отдаёт приказ уничтожить монастырь, и Зингу приходится повторно спасаться бегством, чтобы спасти свою жизнь. Годы спустя, под его руководством армия Чика собирается снова, чтобы уничтожить злодейский союз пиратов и Тунга, и тем самым отомстить за честь своей семьи.
Благодарность: За исходник благодарность выражается шурик 555.
Качество видео: VHSRip
Формат видео: AVI
Видео: 672x512 (1.31:1), 25 fps, XviD build 50 ~2074 kbps avg, 0.24 bit/pixel
Аудио: 48 kHz, MPEG Layer 3, 2 ch, ~128.00 kbps avg

MediaInfo

Format : AVI
Format/Info : Audio Video Interleave
File size : 1,37 Гбайт
Duration : 1 ч. 28 м.
Overall bit rate : 2212 Кбит/сек
Writing application : VirtualDubMod 1.5.10.3 | www.virtualdub-fr.org || (build 2550/release)
Writing library : VirtualDubMod build 2550/release
Видео
ID : 0
Format : MPEG-4 Visual
Format profile : Advanced Simple@L5
Format settings, BVOP : 2
Format settings, QPel : Нет
Format settings, GMC : Без точки перехода
Format settings, Matrix : Default (MPEG)
Codec ID : XVID
Codec ID/Hint : XviD
Duration : 1 ч. 28 м.
Bit rate : 2075 Кбит/сек
Width : 672 пикселя
Height : 512 пикселей
Display aspect ratio : 4:3
Frame rate : 25,000 кадров/сек
Color space : YUV
Chroma subsampling : 4:2:0
Bit depth : 8 бит
Scan type : Прогрессивная
Compression mode : С потерями
Bits/(Pixel*Frame) : 0.241
Stream size : 1,28 Гбайт (94%)
Writing library : XviD 1.2.1 (UTC 2008-12-04)
Аудио
ID : 1
Format : MPEG Audio
Format version : Version 1
Format profile : Layer 3
Codec ID : 55
Codec ID/Hint : MP3
Duration : 1 ч. 28 м.
Bit rate mode : Постоянный
Bit rate : 128 Кбит/сек
Channel(s) : 2 канала
Sampling rate : 48,0 КГц
Compression mode : С потерями
Stream size : 80,9 Мбайт (6%)
Alignment : Соединение по промежуткам
Interleave, duration : 40 мс. (1,00 видеокадр)
Interleave, preload duration : 504 мс.
Writing library : LAME3.99r
Encoding settings : -m s -V 4 -q 2 -lowpass 17 -b 128

Скриншот c названием фильма

Скриншоты

Скачать

Скачать торрент! Король Шаолиня / Королевский боец Шаолинь / The Shaolin Kingboxer / Iron Fists / Tie quan / Quan zhong jian (Карл Мака / Karl Maka) [1979, Гонконг, боевые искусства, VHSRip] AVO (Сергей Кузнецов)

Как скачивать? · Что такое торрент? · Рейтинг и ограничения

Сайт не распространяет и не хранит электронные версии произведений, а лишь предоставляет доступ к создаваемому пользователями каталогу ссылок на торрент-файлы, которые содержат только списки хеш-сумм

[Профиль] [ЛС]
Показать сообщения:    
Ответить на тему

Текущее время: Сегодня 05:14

Часовой пояс: GMT + 4



Вы не можете начинать темы
Вы не можете отвечать на сообщения
Вы не можете редактировать свои сообщения
Вы не можете удалять свои сообщения
Вы не можете голосовать в опросах
Вы не можете прикреплять файлы к сообщениям
Вы не можете скачивать файлы