Торжественный финал / Grand Piano (Эухенио Мира / Eugenio Mira) [2013, Испания, триллер, WEB-DL] VO (Andi) + Original Eng

Ответить на тему
 
Автор Сообщение

user ®

Стаж: 7 лет 7 месяцев

Сообщений: 20008

Пост Пост: #1 от 06-Фев-2014 21:45

[Цитировать]

Торжественный финал / Grand Piano
Страна: Испания
Жанр: триллер
Год выпуска: 2013
Продолжительность: 01:30:15
Перевод: Одноголосый закадровый Andi по субтитрам Janetta
Cубтитры: нет
Оригинальная аудиодорожка: английский
Режиссер: Эухенио Мира / Eugenio Mira
В ролях: Элайджа Вуд, Джон Кьюсак, Аллен Лич, Тэмсин Эгертон, Керри Бише, Ди Уоллес-Стоун, Алекс Уинтер, Дон МакМанус, Дон Кресс, Кристофер Калер
Описание: История знаменитого пианиста, который на много лет оказывается отлученным от концертной деятельности из-за патологической боязни сцены. Когда же, наконец, ему удается преодолеть свой страх и выступить перед публикой, он вдруг узнает, что попал в смертельную ловушку. На выбор ему уготованы только два варианта — либо продолжать мастерски играть, либо погибнуть вместе с женой от рук загадочного безумца.
Семпл
ролик на youtube
Качество видео: WEB-DL
Формат видео: mkv
Видео: 1280*530, 3930 Кбит/сек, 23,976 кадра/сек
Аудио: DTS, 1510 Кбит/сек, 6Ch, 48,0 КГц-русский
Аудио: AC-3, 384 Кбит/сек, 6Ch, 48,0 КГц-английский
Субтитры: нет

Скриншоты

M.I.

Общее
Уникальный идентификатор : 246251792889690948529502555296734156983 (0xB9425EC40527DD1EBB9B4E3C1DF898B7)
Полное имя : L:\Grand.Piano.2013VO (Andi).mkv
Формат : Matroska
Версия формата : Version 2
Размер файла : 3,75 Гбайт
Продолжительность : 1 ч. 30 м.
Общий поток : 5942 Кбит/сек
Дата кодирования : UTC 2014-02-04 14:49:25
Программа кодирования : mkvmerge v5.5.0 ('Healer') built on Apr 6 2012 21:43:24
Библиотека кодирования : libebml v1.2.3 + libmatroska v1.3.0
Видео
Идентификатор : 1
Формат : AVC
Формат/Информация : Advanced Video Codec
Профиль формата : Main@L3.1
Параметр CABAC формата : Нет
Параметр ReFrames формата : 2 кадра
Идентификатор кодека : V_MPEG4/ISO/AVC
Продолжительность : 1 ч. 30 м.
Битрейт : 3930 Кбит/сек
Ширина : 1280 пикселей
Высота : 530 пикселей
Соотношение сторон : 2,40:1
Режим частоты кадров : Постоянный
Частота кадров : 23,976 кадра/сек
Цветовое пространство : YUV
Субдискретизация насыщенности : 4:2:0
Битовая глубина : 8 бит
Тип развёртки : Прогрессивная
Бит/(Пиксели*Кадры) : 0.242
Размер потока : 2,48 Гбайт (66%)
Язык : English
Default : Да
Forced : Нет
Основные цвета : BT.709
Характеристики трансфера : BT.709
Коэффициенты матрицы : BT.709
Аудио #1
Идентификатор : 2
Формат : DTS
Формат/Информация : Digital Theater Systems
Режим : 16
Параметр Endianness формата : Big
Идентификатор кодека : A_DTS
Продолжительность : 1 ч. 30 м.
Вид битрейта : Постоянный
Битрейт : 1510 Кбит/сек
Каналы : 6 каналов
Расположение каналов : Front: L C R, Side: L R, LFE
Частота : 48,0 КГц
Битовая глубина : 16 бит
Метод сжатия : С потерями
Размер потока : 975 Мбайт (25%)
Заголовок : VO Andi
Язык : Russian
Default : Да
Forced : Нет
Аудио #2
Идентификатор : 3
Формат : AC-3
Формат/Информация : Audio Coding 3
Расширение режима : CM (complete main)
Параметр Endianness формата : Big
Идентификатор кодека : A_AC3
Продолжительность : 1 ч. 30 м.
Вид битрейта : Постоянный
Битрейт : 384 Кбит/сек
Каналы : 6 каналов
Расположение каналов : Front: L C R, Side: L R, LFE
Частота : 48,0 КГц
Битовая глубина : 16 бит
Метод сжатия : С потерями
Размер потока : 248 Мбайт (6%)
Язык : English
Default : Нет
Forced : Нет
Скачать

Скачать торрент!

Как скачивать? · Что такое торрент? · Рейтинг и ограничения

Сайт не распространяет и не хранит электронные версии произведений, а лишь предоставляет доступ к создаваемому пользователями каталогу ссылок на торрент-файлы, которые содержат только списки хеш-сумм

[Профиль] [ЛС]
Показать сообщения:    
Ответить на тему

Текущее время: Сегодня 02:17

Часовой пояс: GMT + 4



Вы не можете начинать темы
Вы не можете отвечать на сообщения
Вы не можете редактировать свои сообщения
Вы не можете удалять свои сообщения
Вы не можете голосовать в опросах
Вы не можете прикреплять файлы к сообщениям
Вы не можете скачивать файлы