Дюймовочка (Леонид Амальрик) [1964 г., мультфильм, сказка, семейный, DVDRip-AVC] КП, реставрация

Ответить на тему
 
Автор Сообщение

user ®

Стаж: 7 лет 7 месяцев

Сообщений: 20008

Пост Пост: #1 от 05-Фев-2014 23:25

[Цитировать]

Дюймовочка-Год выпуска: 1964
Страна: СССР
Жанр: мультфильм, сказка, семейный
Продолжительность: 00:28:30
Русские субтитры: нет
Режиссер: Леонид Амальрик
Роли озвучили: Эраст Гарин, Сергей Мартинсон, Галина Новожилова, Елена Понсова, Георгий Вицин, Михаил Яншин
Текст читает: Эммануил Каминка
Описание: Фильм о девочке, величиной в один дюйм - Дюймовочке. После ряда приключений она находит свою судьбу в стране эльфов
Качество: DVDRip-AVC
Формат: MKV
Видео: 720x556 (4:3) @ 768x556, 25.000 fps, AVC, ~2037 Kbps
Аудио: Russian, 48.0 KHz, AC3, 6 ch, 448 Kbps

Скриншоты

Тех.данные

General
Unique ID : 226943357858717615837508954987628819344 (0xAABBB36B6DDF0128BB584AE8359B7390)
Complete name : D:\torrent\Дюймочовка.mkv
Format : Matroska
Format version : Version 4 / Version 2
File size : 517 MiB
Duration : 28mn 30s
Overall bit rate : 2 536 Kbps
Movie name : Duymovochka.mkv by Nyc-2008
Encoded date : UTC 2014-02-05 16:03:59
Writing application : mkvmerge v6.7.0 ('Back to the Ground') 64bit built on Jan 8 2014 15:10:52
Writing library : libebml v1.3.0 + libmatroska v1.4.1
Video
ID : 1
Format : AVC
Format/Info : Advanced Video Codec
Format profile : High@L4.0
Format settings, CABAC : Yes
Format settings, ReFrames : 16 frames
Codec ID : V_MPEG4/ISO/AVC
Duration : 28mn 30s
Bit rate : 2 037 Kbps
Width : 720 pixels
Height : 556 pixels
Display aspect ratio : 1.381
Frame rate mode : Constant
Frame rate : 25.000 fps
Color space : YUV
Chroma subsampling : 4:2:0
Bit depth : 8 bits
Scan type : Progressive
Bits/(Pixel*Frame) : 0.204
Stream size : 415 MiB (80%)
Writing library : x264 core 142 r2389kMod 956c8d8
Encoding settings : cabac=1 / ref=16 / deblock=1:-1:-1 / analyse=0x3:0x113 / me=umh / subme=10 / psy=1 / fade_compensate=0.00 / psy_rd=1.00:0.00 / mixed_ref=1 / me_range=24 / chroma_me=1 / trellis=2 / 8x8dct=1 / cqm=0 / deadzone=21,11 / fast_pskip=0 / chroma_qp_offset=-2 / threads=6 / lookahead_threads=1 / sliced_threads=0 / nr=0 / decimate=1 / interlaced=0 / bluray_compat=0 / constrained_intra=0 / fgo=0 / bframes=16 / b_pyramid=2 / b_adapt=2 / b_bias=0 / direct=1 / weightb=1 / open_gop=0 / weightp=2 / keyint=250 / keyint_min=25 / scenecut=40 / intra_refresh=0 / rc=crf / mbtree=0 / crf=18.0000 / qcomp=0.60 / qpmin=0 / qpmax=69 / qpstep=4 / ip_ratio=1.40 / pb_ratio=1.30 / aq=1:1.00
Default : Yes
Forced : No
Audio
ID : 2
Format : AC-3
Format/Info : Audio Coding 3
Mode extension : CM (complete main)
Format settings, Endianness : Big
Codec ID : A_AC3
Duration : 28mn 30s
Bit rate mode : Constant
Bit rate : 448 Kbps
Channel(s) : 6 channels
Channel positions : Front: L C R, Side: L R, LFE
Sampling rate : 48.0 KHz
Bit depth : 16 bits
Compression mode : Lossy
Delay relative to video : 1s 5ms
Stream size : 91.3 MiB (18%)
Language : Russian
Default : Yes
Forced : No
Скачать

Скачать торрент!

Как скачивать? · Что такое торрент? · Рейтинг и ограничения

Сайт не распространяет и не хранит электронные версии произведений, а лишь предоставляет доступ к создаваемому пользователями каталогу ссылок на торрент-файлы, которые содержат только списки хеш-сумм

[Профиль] [ЛС]
Показать сообщения:    
Ответить на тему

Текущее время: Сегодня 20:07

Часовой пояс: GMT + 4



Вы не можете начинать темы
Вы не можете отвечать на сообщения
Вы не можете редактировать свои сообщения
Вы не можете удалять свои сообщения
Вы не можете голосовать в опросах
Вы не можете прикреплять файлы к сообщениям
Вы не можете скачивать файлы