Мумия: Принц Египта / Tale of the Mummy (Рассел Малкэй / Russell Mulcahy) [1998, США, Люксембург, Великобритания, фантастика, детектив, мистика, BDRip 720p] DVO (Студия "Ракурс") + Sub Rus + Original Eng

Ответить на тему
 
Автор Сообщение

user ®

Стаж: 7 лет 7 месяцев

Сообщений: 20008

Пост Пост: #1 от 05-Фев-2014 23:25

[Цитировать]

Мумия: Принц Египта / Tale of the Mummy
Страна: США, Люксембург, Великобритания
Студия: 7th Voyage, Cine Grande Corporation, K.N.B. Effects Group, Carousel Picture Company
Жанр: фантастика, детектив, мистика
Год выпуска: 1998
Продолжительность: 01:28:15
Перевод: Профессиональный (двухголосый закадровый) Студия "Ракурс"
Cубтитры: русские
Оригинальная аудиодорожка: английский
Режиссер: Рассел Малкэй / Russell Mulcahy
В ролях: Джейсон Скотт Ли, Луиза Ломбард, Шон Пертуи, Лизетт Энтони, Майкл Лернер, Джек Девенпорт, Онор Блэкман, Кристофер Ли, Шелли Дювалл, Джерард Батлер
Описание: Великий фараон Аменхотеп выдал свою дочь за чужестранца по имени Талас. Новый принц Египта оказался жестоким и кровожадным черным магом. По приказу фараона Таласа убивают, а на его гробницу налагают вечное проклятие. Но в день Великого парада планет Талас может вернуться к жизни, если его гробница будет открыта. В XX веке археологическая экспедиция находит гробницу Таласа. Саркофаг принца перевозят в Британский музей. Приближается день Великого парада планет, когда ужасный дух зла обретет свободу. Мумия оживает и начинает хладнокровно убивать людей и забирать у них внутренности. Только археолог Саманта и детектив Райли могут помешать новой реинкарнации Таласа…

Доп. информация

С учетом соотношения PAL/NTSC, данная версия фильма фактически на 31 минуту и 35 секунд короче, чем всем известная самая длинная - Talos the Mummy. Однако, уменьшение продолжительности этого варианта фильма получено не простой вырезкой - есть реплики и сцены, отсутствующие в более полных версиях, некоторые сцены смонтированы в другой последовательности.
- -Тип релиза: BDRip 720p
Контейнер: MKV
Видео: 1280 x 554 pixels, ~6645 Kbps, 23.976 fps
Аудио: 48 kHz, AC3 5.1 ch, 448 kbps - Профессиональный (двухголосый, закадровый) | Студия "Ракурс" по заказу Екатеринбург Арт
Аудио 2: Английский / Оригинальный, DTS 5.1 ch, 48 kHz, , 1509 kbps

MediaInfo

Общее
Уникальный идентификатор : 251961926589710846763364004109214815767 (0xBD8E1A17DA460271A87DB2E474541617)
Полное имя : C:\Users\к\Desktop\фильмы\Tale of the Mummy (1998) BDRip 720p.mkv
Формат : Matroska
Версия формата : Version 4 / Version 2
Размер файла : 5,30 Гбайт
Продолжительность : 1 ч. 28 м.
Общий поток : 8603 Кбит/сек
Название фильма : Tale of the Mummy, 1998 [Bluray Cut] Rus, Subs
Дата кодирования : UTC 2014-01-31 17:39:20
Программа кодирования : mkvmerge v6.3.0 ('You can't stop me!') built on Jun 28 2013 20:09:41
Библиотека кодирования : libebml v1.3.0 + libmatroska v1.4.0
Видео
Идентификатор : 1
Формат : AVC
Формат/Информация : Advanced Video Codec
Профиль формата : High@L4.1
Параметр CABAC формата : Да
Параметр ReFrames формата : 10 кадров
Идентификатор кодека : V_MPEG4/ISO/AVC
Продолжительность : 1 ч. 28 м.
Битрейт : 6645 Кбит/сек
Ширина : 1280 пикселей
Высота : 554 пикселя
Соотношение сторон : 2,35:1
Режим частоты кадров : Постоянный
Частота кадров : 23,976 кадра/сек
Цветовое пространство : YUV
Субдискретизация насыщенности : 4:2:0
Битовая глубина : 8 бит
Тип развёртки : Прогрессивная
Бит/(Пиксели*Кадры) : 0.391
Размер потока : 3,99 Гбайт (75%)
Заголовок : Tale of the Mummy, 1998 [Bluray Cut]
Библиотека кодирования : x264 core 130 r2273 b3065e6
Настройки программы : cabac=1 / ref=11 / deblock=1:-2:-2 / analyse=0x3:0x133 / me=umh / subme=10 / psy=1 / psy_rd=1.10:0.10 / mixed_ref=1 / me_range=64 / chroma_me=1 / trellis=2 / 8x8dct=1 / cqm=0 / deadzone=21,11 / fast_pskip=0 / chroma_qp_offset=-3 / threads=12 / lookahead_threads=1 / sliced_threads=0 / nr=0 / decimate=1 / interlaced=0 / bluray_compat=0 / constrained_intra=0 / bframes=6 / b_pyramid=1 / b_adapt=2 / b_bias=0 / direct=3 / weightb=1 / open_gop=0 / weightp=2 / keyint=240 / keyint_min=24 / scenecut=40 / intra_refresh=0 / rc_lookahead=50 / rc=2pass / mbtree=1 / bitrate=6645 / ratetol=1.0 / qcomp=0.60 / qpmin=0 / qpmax=69 / qpstep=4 / cplxblur=20.0 / qblur=0.5 / vbv_maxrate=62500 / vbv_bufsize=78125 / nal_hrd=none / ip_ratio=1.40 / aq=1:1.00
Default : Да
Forced : Нет
Основные цвета : BT.709
Характеристики трансфера : BT.709
Коэффициенты матрицы : BT.709
Аудио #1
Идентификатор : 2
Формат : AC-3
Формат/Информация : Audio Coding 3
Расширение режима : CM (complete main)
Параметр Endianness формата : Big
Идентификатор кодека : A_AC3
Продолжительность : 1 ч. 28 м.
Вид битрейта : Постоянный
Битрейт : 448 Кбит/сек
Каналы : 6 каналов
Расположение каналов : Front: L C R, Side: L R, LFE
Частота : 48,0 КГц
Битовая глубина : 16 бит
Метод сжатия : С потерями
Размер потока : 283 Мбайт (5%)
Заголовок : Russian [Mixed by Youli]
Язык : Russian
Default : Да
Forced : Да
Аудио #2
Идентификатор : 3
Формат : DTS
Формат/Информация : Digital Theater Systems
Режим : 16
Параметр Endianness формата : Big
Идентификатор кодека : A_DTS
Продолжительность : 1 ч. 28 м.
Вид битрейта : Постоянный
Битрейт : 1509 Кбит/сек
Каналы : 6 каналов
Расположение каналов : Front: L C R, Side: L R, LFE
Частота : 48,0 КГц
Битовая глубина : 24 бит
Метод сжатия : С потерями
Размер потока : 953 Мбайт (18%)
Язык : English
Default : Нет
Forced : Нет
Текст #1
Идентификатор : 4
Формат : UTF-8
Идентификатор кодека : S_TEXT/UTF8
Идентификатор кодека/Информация : UTF-8 Plain Text
Заголовок : Russian (Forced)
Язык : Russian
Default : Да
Forced : Да
Текст #2
Идентификатор : 5
Формат : UTF-8
Идентификатор кодека : S_TEXT/UTF8
Идентификатор кодека/Информация : UTF-8 Plain Text
Заголовок : Russian
Язык : Russian
Default : Нет
Forced : Нет
Меню
00:00:00.000 : en:00:00:00.000
00:09:53.134 : en:00:09:53.134
00:19:58.948 : en:00:19:58.948
00:30:01.925 : en:00:30:01.925
00:38:54.165 : en:00:38:54.165
00:46:58.816 : en:00:46:58.816
01:00:37.342 : en:01:00:37.342
01:09:25.661 : en:01:09:25.661
01:18:36.253 : en:01:18:36.253

Скриншоты

Сравнение скриншотов

[url=http://***/forum/viewtopic.php?t=4439902]http://***/forum/viewtopic.php?t=4439902[/url] http://screenshotcomparison.com/comparison/60330
Скачать

Скачать торрент!

Как скачивать? · Что такое торрент? · Рейтинг и ограничения

Сайт не распространяет и не хранит электронные версии произведений, а лишь предоставляет доступ к создаваемому пользователями каталогу ссылок на торрент-файлы, которые содержат только списки хеш-сумм

[Профиль] [ЛС]
Показать сообщения:    
Ответить на тему

Текущее время: Сегодня 06:25

Часовой пояс: GMT + 4



Вы не можете начинать темы
Вы не можете отвечать на сообщения
Вы не можете редактировать свои сообщения
Вы не можете удалять свои сообщения
Вы не можете голосовать в опросах
Вы не можете прикреплять файлы к сообщениям
Вы не можете скачивать файлы