Другая жизнь Ришара Кемпа / L\'autre vie de Richard Kemp (Жерминаль Альварез / Germinal Alvarez) [2013, Франция, фантастика, триллер, криминал, BDRip 720p] VO (Чадов) + Sub Rus + Original Fre

Ответить на тему
 
Автор Сообщение

user ®

Стаж: 7 лет 7 месяцев

Сообщений: 20008

Пост Пост: #1 от 05-Фев-2014 01:00

[Цитировать]

Другая жизнь Ришара Кемпа / L'autre vie de Richard Kemp Страна: Франция
Жанр: фантастика, триллер, криминал
Год выпуска: 2013
Продолжительность: 01:40:44
Перевод: Одноголосый закадровый (Михаил Чадов)
Cубтитры: русские
Оригинальная аудиодорожка: французский
Режиссер: Жерминаль Альварез / Germinal Alvarez
В ролях: Жан-Юг Англад, Мелани Тьерри, Филиппе Беродот, Жан-Анри Компере, Пьер Мур, Фридерик Сорель, Адриен Кошетье, Эльза Жаллес
Описание: Расследуя очередное дело, капитан полиции Ришар Кемп обнаруживает, что новое убийство как две капли воды похоже на работу серийного маньяка, который орудовал в этих краях тридцать с лишним лет назад. Мистическим образом Ришар Кемп переносится в май 1989 года, ровно за день до того, как маньяк совершит первое убийство. Кемп решает изменить прошлое и поймать убийцу еще до того, как тот совершит преступление, но ему активно мешает молодой и амбициозный детектив — ни кто иной, как он сам.
Доп. информация:

Сведение звука - sashock86
Озвучка М.Чадова по переводу А.Королёва доступна благодаря будулайроманову.
Сэмпл: http://multi-up.com/947724
Качество видео: BDRip 720p (Исходник неизвестен)
Формат видео: MKV
Видео: x264 High@L4.1, 1280x544, 23,976 fps, 4700 kbps, 0.282 bit/pixel
Аудио 1: DTS, 5.1 ch, 48 kHz, 1510 kbps [Rus]
Аудио 2: DTS, 5.1 ch, 48 kHz, 1509 kbps [Fra]
Формат субтитров: softsub (SRT)

MediaInfo

Общее
Уникальный идентификатор : 179595285720817609935477488476027194825 (0x871CCB3AACA5EF5C9BFA6AFEBFCD8DC9)
Полное имя : Drugaya.Zhizn.Rishara.Kempa.2013.RUS.VO.BDRip.720p.h264.DTS.-R.G.TorrBy.mkv.mkv
Формат : Matroska
Версия формата : Version 2
Размер файла : 5,43 Гбайт
Продолжительность : 1 ч. 40 м.
Общий поток : 7721 Кбит/сек
Дата кодирования : UTC 2014-02-04 16:24:39
Программа кодирования : mkvmerge v4.9.1 ('Ich will') сборка от Jul 11 2011 23:53:15
Библиотека кодирования : libebml v1.2.1 + libmatroska v1.1.1
Видео
Идентификатор : 1
Формат : AVC
Формат/Информация : Advanced Video Codec
Профиль формата : High@L4.1
Параметр CABAC формата : Да
Параметр ReFrames формата : 5 кадров
Идентификатор кодека : V_MPEG4/ISO/AVC
Продолжительность : 1 ч. 40 м.
Битрейт : 4700 Кбит/сек
Ширина : 1280 пикселей
Высота : 544 пикселя
Соотношение сторон : 2,35:1
Режим частоты кадров : Постоянный
Частота кадров : 23,976 кадра/сек
Цветовое пространство : YUV
Субдискретизация насыщенности : 4:2:0
Битовая глубина : 8 бит
Тип развёртки : Прогрессивная
Бит/(Пиксели*Кадры) : 0.282
Размер потока : 3,20 Гбайт (59%)
Библиотека кодирования : x264 core 138 r2358 9e941d1
Настройки программы : cabac=1 / ref=5 / deblock=1:0:0 / analyse=0x3:0x133 / me=umh / subme=8 / psy=1 / psy_rd=1.00:0.00 / mixed_ref=1 / me_range=16 / chroma_me=1 / trellis=1 / 8x8dct=1 / cqm=0 / deadzone=21,11 / fast_pskip=0 / chroma_qp_offset=-2 / threads=24 / lookahead_threads=4 / sliced_threads=0 / nr=0 / decimate=1 / interlaced=0 / bluray_compat=0 / constrained_intra=0 / bframes=3 / b_pyramid=2 / b_adapt=1 / b_bias=0 / direct=1 / weightb=1 / open_gop=0 / weightp=2 / keyint=250 / keyint_min=23 / scenecut=40 / intra_refresh=0 / rc=2pass / mbtree=0 / bitrate=4700 / ratetol=1.0 / qcomp=0.60 / qpmin=0 / qpmax=69 / qpstep=4 / cplxblur=20.0 / qblur=0.5 / ip_ratio=1.40 / pb_ratio=1.30 / aq=1:1.00
Default : Да
Forced : Нет
Аудио #1
Идентификатор : 2
Формат : DTS
Формат/Информация : Digital Theater Systems
Режим : 16
Параметр Endianness формата : Big
Идентификатор кодека : A_DTS
Продолжительность : 1 ч. 40 м.
Вид битрейта : Постоянный
Битрейт : 1510 Кбит/сек
Каналы : 6 каналов
Расположение каналов : Front: L C R, Side: L R, LFE
Частота : 48,0 КГц
Битовая глубина : 24 бит
Метод сжатия : С потерями
Размер потока : 1,06 Гбайт (20%)
Заголовок : VO (М. Чадов)
Язык : Russian
Default : Да
Forced : Нет
Аудио #2
Идентификатор : 3
Формат : DTS
Формат/Информация : Digital Theater Systems
Режим : 16
Параметр Endianness формата : Big
Идентификатор кодека : A_DTS
Продолжительность : 1 ч. 40 м.
Вид битрейта : Постоянный
Битрейт : 1509 Кбит/сек
Каналы : 6 каналов
Расположение каналов : Front: L C R, Side: L R, LFE
Частота : 48,0 КГц
Битовая глубина : 24 бит
Метод сжатия : С потерями
Размер потока : 1,06 Гбайт (20%)
Заголовок : Оригинал
Язык : French
Default : Нет
Forced : Нет
Текст
Идентификатор : 4
Формат : UTF-8
Идентификатор кодека : S_TEXT/UTF8
Идентификатор кодека/Информация : UTF-8 Plain Text
Язык : Russian
Default : Нет
Forced : Нет
Меню
00:00:00.000 : en:00:00:00.000
00:10:12.946 : en:00:10:12.946
00:20:13.587 : en:00:20:13.587
00:31:10.410 : en:00:31:10.410
00:41:52.093 : en:00:41:52.093
00:52:24.892 : en:00:52:24.892
01:02:41.299 : en:01:02:41.299
01:13:32.533 : en:01:13:32.533
01:23:00.017 : en:01:23:00.017
01:31:45.917 : en:01:31:45.917

Скриншот c названием фильма

Скриншоты

Скачать

Скачать торрент!

Как скачивать? · Что такое торрент? · Рейтинг и ограничения

Сайт не распространяет и не хранит электронные версии произведений, а лишь предоставляет доступ к создаваемому пользователями каталогу ссылок на торрент-файлы, которые содержат только списки хеш-сумм

[Профиль] [ЛС]
Показать сообщения:    
Ответить на тему

Текущее время: Сегодня 22:16

Часовой пояс: GMT + 4



Вы не можете начинать темы
Вы не можете отвечать на сообщения
Вы не можете редактировать свои сообщения
Вы не можете удалять свои сообщения
Вы не можете голосовать в опросах
Вы не можете прикреплять файлы к сообщениям
Вы не можете скачивать файлы