Темный рыцарь / The Dark Knight (Кристофер Нолан / Christopher Nolan) [2008, США, боевик, приключения, драма, криминал, BDRemux 1080p] Dub + MVO + 3x AVO + 2x VO + Original eng + Sub rus, eng

Ответить на тему
 
Автор Сообщение

user ®

Стаж: 7 лет 7 месяцев

Сообщений: 20008

Пост Пост: #1 от 05-Фев-2014 01:00

[Цитировать]

Темный рыцарь / The Dark Knight
Страна: США
Жанр: боевик, приключения, драма, криминал
Год выпуска: 2008
Продолжительность: 02:32:13
Перевод#1: Профессиональный (дублированный) | BD CEE
Перевод#2: Профессиональный (многоголосый закадровый) | Кравец
Перевод#3: Авторский (одноголосый закадровый), Ю. Сербин
Перевод#4: Авторский (одноголосый закадровый), А. Гаврилов
Перевод#5: Авторский (одноголосый закадровый), Ю. Живов
Перевод#6: Одноголосый закадровый, [REN_313 по переводу Гоблина
Перевод#7: Одноголосый закадровый, М. Чадов по переводу Гоблина
Cубтитры: русские (BD, voronine, Гоблин), английские
Оригинальная аудиодорожка: английский
Режиссер: Кристофер Нолан / Christopher Nolan
В ролях: Кристиан Бэйл, Майкл Кейн, Хит Леджер, Гари Олдман, Морган Фриман, Мэгги Джилленхол, Нестор Карбонелл, Эрик Робертс, Ричи Костер, Киллиан Мерфи, Чин Хан
Описание: Всего за несколько дней жизнь в Готэм-сити превратилась в кошмар. Равновесие между криминальным миром с одной стороны, и усилиями Бэтмена, комиссара полиции Джеймса Гордона и нового прокурора Харви Дента по обузданию негодяев, с другой, нарушил Джокер. Ограбив банк мафии, тот не только вышел сухим из воды, но и заключил с бандитами сделку — в обмен на уничтожение Бэтмена он получит половину преступных доходов города. Однако цель Джокера — тотальный хаос. Бэтмену придется сражаться не только с безумным клоуном и его бандой, но и с тьмой в сердцах добропорядочных обитателей города...

Исходник: Темный рыцарь / The Dark Knight (2008) BDRemux
Тип релиза: BDRemux 1080p | sample
Контейнер: MKV
Видео: VC-1 Video / 23999 kbps / 1080p / 23,976 fps / 16:9 / Advanced Profile 3
Аудио #1: Russian AC3 6ch 48kHz 448Kbps | Dub BD CEE
Аудио #2: Russian AC3 6ch 48kHz 448Kbps | MVO Кравец
Аудио #3: Russian DTS-HD MA / 5.1 / 48 kHz / 2212 kbps / 16-bit (DTS Core: 5.1 / 48 kHz / 1509 kbps / 16-bit)| AVO Сербин
Аудио #4: Russian DTS-HD MA / 5.1 / 48 kHz / 2225 kbps / 16-bit (DTS Core: 5.1 / 48 kHz / 1509 kbps / 16-bit)| AVO Гаврилов
Аудио #5: Russian DTS-HD MA / 5.1 / 48 kHz / 2211 kbps / 16-bit (DTS Core: 5.1 / 48 kHz / 1509 kbps / 16-bit)| AVO Живов
Аудио #6: Russian DTS 6ch 48kHz 1510Kbps | VO REN_313
Аудио #7: Russian AC3 6ch 48kHz 384Kbps | VO Чадов
Аудио #8: English DTS-HD MA / 5.1 / 48 kHz / 2204 kbps / 16-bit (DTS Core: 5.1 / 48 kHz / 1509 kbps / 16-bit)| Original
Аудио #9: English Vorbis 2ch 48kHz ~80Kbps | Commentary
Формат субтитров: softsub (SRT)
Главы: есть, подписаны

MediaInfo

General
Complete name : D:\...\The.Dark.Knight.2008.1080p.Remux.VC-1.7xRus.Eng.mkv
Format : Matroska
Format version : Version 2
File size : 38.0 GiB
Duration : 2h 32mn
Overall bit rate mode : Variable
Overall bit rate : 35.7 Mbps
Movie name : The.Dark.Knight.2008.1080p.Remux.VC-1.7xRus.Eng
Encoded date : UTC 2014-02-04 15:45:31
Writing application : mkvmerge v6.5.0 ('Isn't she lovely') built on Oct 20 2013 12:50:05
Writing library : libebml v1.3.0 + libmatroska v1.4.1
Video
ID : 1
Format : VC-1
Format profile : Advanced@L3
Codec ID : V_MS/VFW/FOURCC / WVC1
Codec ID/Hint : Microsoft
Duration : 2h 32mn
Bit rate : 25.9 Mbps
Width : 1 920 pixels
Height : 1 080 pixels
Display aspect ratio : 16:9
Frame rate mode : Constant
Frame rate : 23.976 fps
Chroma subsampling : 4:2:0
Bit depth : 8 bits
Scan type : Progressive
Compression mode : Lossy
Bits/(Pixel*Frame) : 0.521
Stream size : 27.5 GiB (73%)
Title : The Dark Knight (2008)
Language : English
Default : Yes
Forced : No
Audio #1
ID : 2
Format : AC-3
Format/Info : Audio Coding 3
Mode extension : CM (complete main)
Format settings, Endianness : Big
Codec ID : A_AC3
Duration : 2h 32mn
Bit rate mode : Constant
Bit rate : 448 Kbps
Channel(s) : 6 channels
Channel positions : Front: L C R, Side: L R, LFE
Sampling rate : 48.0 KHz
Bit depth : 16 bits
Compression mode : Lossy
Stream size : 488 MiB (1%)
Title : Dub BD CEE
Language : Russian
Default : Yes
Forced : No
Audio #2
ID : 3
Format : AC-3
Format/Info : Audio Coding 3
Mode extension : CM (complete main)
Format settings, Endianness : Big
Codec ID : A_AC3
Duration : 2h 32mn
Bit rate mode : Constant
Bit rate : 448 Kbps
Channel(s) : 6 channels
Channel positions : Front: L C R, Side: L R, LFE
Sampling rate : 48.0 KHz
Bit depth : 16 bits
Compression mode : Lossy
Stream size : 488 MiB (1%)
Title : MVO Kravec
Language : Russian
Default : No
Forced : No
Audio #3
ID : 4
Format : DTS
Format/Info : Digital Theater Systems
Format profile : MA / Core
Codec ID : A_DTS
Duration : 2h 32mn
Bit rate mode : Variable
Bit rate : 1 561 Kbps / 1 510 Kbps
Channel(s) : 6 channels
Channel positions : Front: L C R, Side: L R, LFE
Sampling rate : 48.0 KHz
Bit depth : 16 bits
Compression mode : Lossless / Lossy
Title : AVO Serbin
Language : Russian
Default : No
Forced : No
Audio #4
ID : 5
Format : DTS
Format/Info : Digital Theater Systems
Format profile : MA / Core
Codec ID : A_DTS
Duration : 2h 32mn
Bit rate mode : Variable
Bit rate : 1 561 Kbps / 1 510 Kbps
Channel(s) : 6 channels
Channel positions : Front: L C R, Side: L R, LFE
Sampling rate : 48.0 KHz
Bit depth : 16 bits
Compression mode : Lossless / Lossy
Title : AVO Gavrilov
Language : Russian
Default : No
Forced : No
Audio #5
ID : 6
Format : DTS
Format/Info : Digital Theater Systems
Format profile : MA / Core
Codec ID : A_DTS
Duration : 2h 32mn
Bit rate mode : Variable
Bit rate : 1 561 Kbps / 1 510 Kbps
Channel(s) : 6 channels
Channel positions : Front: L C R, Side: L R, LFE
Sampling rate : 48.0 KHz
Bit depth : 16 bits
Compression mode : Lossless / Lossy
Title : AVO Zhivov
Language : Russian
Default : No
Forced : No
Audio #6
ID : 7
Format : DTS
Format/Info : Digital Theater Systems
Codec ID : A_DTS
Duration : 2h 32mn
Bit rate mode : Constant
Bit rate : 1 510 Kbps
Channel(s) : 6 channels
Channel positions : Front: L C R, Side: L R, LFE
Sampling rate : 48.0 KHz
Bit depth : 24 bits
Compression mode : Lossy
Stream size : 1.61 GiB (4%)
Title : VO REN_313
Language : Russian
Default : No
Forced : No
Audio #7
ID : 8
Format : AC-3
Format/Info : Audio Coding 3
Mode extension : CM (complete main)
Format settings, Endianness : Big
Codec ID : A_AC3
Duration : 2h 32mn
Bit rate mode : Constant
Bit rate : 384 Kbps
Channel(s) : 6 channels
Channel positions : Front: L C R, Side: L R, LFE
Sampling rate : 48.0 KHz
Bit depth : 16 bits
Compression mode : Lossy
Stream size : 418 MiB (1%)
Title : VO Chadov
Language : Russian
Default : No
Forced : No
Audio #8
ID : 9
Format : DTS
Format/Info : Digital Theater Systems
Format profile : MA / Core
Codec ID : A_DTS
Duration : 2h 32mn
Bit rate mode : Variable
Bit rate : 1 561 Kbps / 1 510 Kbps
Channel(s) : 6 channels
Channel positions : Front: L C R, Side: L R, LFE
Sampling rate : 48.0 KHz
Bit depth : 16 bits
Compression mode : Lossless / Lossy
Title : Original
Language : English
Default : No
Forced : No
Audio #9
ID : 10
Format : Vorbis
Format settings, Floor : 1
Codec ID : A_VORBIS
Duration : 2h 32mn
Bit rate mode : Variable
Bit rate : 80.0 Kbps
Channel(s) : 2 channels
Sampling rate : 44.1 KHz
Compression mode : Lossy
Stream size : 87.1 MiB (0%)
Title : Commentary
Writing library : libVorbis 1.2 (UTC 2007-06-22)
Language : English
Default : No
Forced : No
Writing application : VLC media player
Text #1
ID : 11
Format : UTF-8
Codec ID : S_TEXT/UTF8
Codec ID/Info : UTF-8 Plain Text
Title : BD CEE
Language : Russian
Default : No
Forced : No
Text #2
ID : 12
Format : UTF-8
Codec ID : S_TEXT/UTF8
Codec ID/Info : UTF-8 Plain Text
Title : Goblin
Language : Russian
Default : No
Forced : No
Text #3
ID : 13
Format : UTF-8
Codec ID : S_TEXT/UTF8
Codec ID/Info : UTF-8 Plain Text
Title : voronine
Language : Russian
Default : No
Forced : No
Text #4
ID : 14
Format : UTF-8
Codec ID : S_TEXT/UTF8
Codec ID/Info : UTF-8 Plain Text
Language : English
Default : No
Forced : No
Text #5
ID : 15
Format : UTF-8
Codec ID : S_TEXT/UTF8
Codec ID/Info : UTF-8 Plain Text
Title : SDH
Language : English
Default : No
Forced : No
Menu
00:00:00.000 : en:Robbery Gone Stranger
00:06:23.966 : en:Intimidate Mode
00:10:36.260 : en:Unknown Limits
00:13:52.581 : en:Last Game in Town
00:17:54.198 : en:Protector's Mantle
00:21:39.339 : en:Kill the Batman
00:26:10.026 : en:Hong Kong Holiday
00:29:36.274 : en:Why so Serious?
00:31:42.483 : en:Landing Lau
00:37:49.058 : en:Men of their Word
00:43:34.069 : en:Hero with a Face
00:46:39.546 : en:Somebody with Access
00:48:57.768 : en:Tonight's Entertainment
00:53:19.446 : en:Watch the World Burn
00:57:15.640 : en:Your Plan is Blackmail?
00:59:26.354 : en:Dishonour Guard
01:03:59.627 : en:No Rules
01:08:23.557 : en:Right Choice
01:10:48.327 : en:I am the Batman
01:14:24.918 : en:Trip to Country
01:18:05.639 : en:Bat-pod Faceoff
01:22:22.437 : en:We Got Him
01:24:48.583 : en:Good Cop, Bad Cop
01:30:48.442 : en:Two-way Race
01:34:04.972 : en:Burned Down
01:39:57.783 : en:Harvey Two-Face
01:42:05.494 : en:Better Class of Criminal
01:44:59.918 : en:Watch Out
01:47:00.872 : en:Agent of Chaos
01:51:09.913 : en:Hospital Boom
01:54:14.639 : en:Too Much Power
01:57:04.017 : en:Unlucky
02:00:14.248 : en:Ferry Scary
02:03:37.576 : en:Prewitt Building Siege
02:09:07.614 : en:Verge of Fireworks
02:12:27.314 : en:Battle for Gotham's Soul
02:15:22.781 : en:One Pointing the Gun
02:19:58.681 : en:Dark Knight
02:24:26.658 : en:End Credits

Скриншоты




Скачать

Скачать торрент!

Как скачивать? · Что такое торрент? · Рейтинг и ограничения

Сайт не распространяет и не хранит электронные версии произведений, а лишь предоставляет доступ к создаваемому пользователями каталогу ссылок на торрент-файлы, которые содержат только списки хеш-сумм

[Профиль] [ЛС]
Показать сообщения:    
Ответить на тему

Текущее время: Сегодня 20:20

Часовой пояс: GMT + 4



Вы не можете начинать темы
Вы не можете отвечать на сообщения
Вы не можете редактировать свои сообщения
Вы не можете удалять свои сообщения
Вы не можете голосовать в опросах
Вы не можете прикреплять файлы к сообщениям
Вы не можете скачивать файлы