Ордер на смерть / Death warrant (Деран Сарафян / Deran Sarafian) [1990, США, боевик, драма, криминал, детектив, BDRip 1080p] MVO (СТС) + DVO (НТВ) + AVO (А.Гаврилов) + MVO (Ukr) + Sub (Rus, Eng) + Original Eng

Ответить на тему
 
Автор Сообщение

user ®

Стаж: 7 лет 7 месяцев

Сообщений: 20008

Пост Пост: #1 от 04-Фев-2014 03:50

[Цитировать]

Ордер на смерть / Death warrant- Страна: США
Жанр: боевик, драма, криминал, детектив
Год выпуска: 1990
Продолжительность: 01:29:03-Перевод: Профессиональный (многоголосый закадровый) СТС
Перевод 2: Профессиональный (двухголосый закадровый) НТВ
Перевод 3: Авторский (одноголосый закадровый) (А.Гаврилов)
Перевод 4: Профессиональный (многоголосый закадровый) укр.1+1
Cубтитры: русские, английские
Оригинальная аудиодорожка: английский-Режиссер: Деран Сарафян / Deran Sarafian-В ролях: Жан-Клод Ван Дамм, Роберт Гийом, Синтия Гибб, Джордж Дикерсон, Арт ЛаФлёр, Пэтрик Килпэтрик, Джошуа Джон Миллер, Хэнк Стоун, Конрад Данн, Джек Бэннон-Описание: Канадский детектив Луис Бёрк в трущобах Лос-Анджелеса преследует преступника по прозвищу «Заговорённый», который убил его напарника. «Заговорённый» устраивает засаду, но Бёрку удаётся расстрелять бандита. Шестнадцать месяцев спустя на совещании у генерального прокурора штата Тома Воглера принимается решение внедрить Бёрка в тюрьму Харрисон под видом заключённого для расследования обстоятельств смерти помощника директора тюрьмы и девятерых заключённых. Связь обеспечивает Аманда Бекетт под видом жены Бёрка. Бёрк вступает в контакт с одноглазым негром Хоукинсом, заявляя, что хочет узнать, кто убил «его друга». Хоукинс направляет его к местному авторитету «Священнику», а тот отсылает Бёрка к заключённому Майерсону. С помощью Хоукинса Бёрк проникает в хранилище и перебирает досье убитых зеков, они все закодированы аббревиатурой SL. Знакомый Бёрка подросток-вундеркинд взламывает тюремную программу и распечатывает список зеков-смертников. Однако в ходе работы неизвестный посылает команду на уничтожение программы. Бёрк устанавливает зловещие факты: никто из убитых ничем не болел, не был наркоманом, и проходил медицинское обследование. Фамилия Берка стоит следующей в списке. Одна из «подружек» «Священника» предупреждает Бёрка о покушении и ему удаётся отбиться от ночных убийц, но при этом погибает его сокамерник. Подоспевшая охрана бросает Бёрка в карцер. Парочка убийц тем временем расправляется и с «подружкой», и с Майерсоном.

Доп. информация

спасибо большое за проделанную работу vik19662007 (синхронизированная дорожка с переводом СТС и скрины параметров кодирования в АС)
Из Ас в Wav дорожка перекодировалась связкой BeSweet + BeLight.
-Сэмпл-Тип релиза: BDRip 1080p
Контейнер: MKV-Видео: MPEG-4 AVC, 20344 kbps, 1920x1040, 23.976 кадр/с
Аудио: 48 kHz, AC3, 2/0 (L,R) ch, 192 kbps avg-русский многоголосый закадровый (СТС)
Аудио 2: 48 kHz, AC3, 2/0 (L,R) ch, 224 kbps avg-русский многоголосый закадровый (НТВ)
Аудио 3: 48 kHz, DTS, 2/0 (L,R) ch, 1510 kbps, 24-bit-русский одноголосый закадровый (А.Гаврилов)
Аудио 4: 48 kHz, AC3, 2/0 (L,R) ch, 224 kbps avg-украинский многоголосый закадровый (1+1)
Аудио 5: 48 kHz, DTS, 2/0 (L,R) ch, 1510 kbps, 24-bit-английская оригинальная дорожка

MediaInfo

Общее
Уникальный идентификатор : 197814358778541901587133732200266511210 (0x94D1A8E21BAAAD718E21060B6C56B36A)
Полное имя : C:\Users\к\Desktop\фильмы\Death.Warrant.1990.x264.BDRip.1080p.mkv
Формат : Matroska
Версия формата : Version 4 / Version 2
Размер файла : 14,9 Гбайт
Продолжительность : 1 ч. 29 м.
Общий поток : 24,0 Мбит/сек
Название фильма : Death Warrant (1990)
Дата кодирования : UTC 2014-02-03 17:23:54
Программа кодирования : mkvmerge v6.3.0 ('You can't stop me!') built on Jun 28 2013 20:09:41
Библиотека кодирования : libebml v1.3.0 + libmatroska v1.4.0
Видео
Идентификатор : 1
Формат : AVC
Формат/Информация : Advanced Video Codec
Профиль формата : High@L4.1
Параметр CABAC формата : Да
Параметр ReFrames формата : 4 кадра
Идентификатор кодека : V_MPEG4/ISO/AVC
Продолжительность : 1 ч. 29 м.
Битрейт : 20,3 Мбит/сек
Ширина : 1920 пикселей
Высота : 1040 пикселей
Соотношение сторон : 1,85:1
Режим частоты кадров : Постоянный
Частота кадров : 23,976 кадра/сек
Цветовое пространство : YUV
Субдискретизация насыщенности : 4:2:0
Битовая глубина : 8 бит
Тип развёртки : Прогрессивная
Бит/(Пиксели*Кадры) : 0.425
Размер потока : 12,4 Гбайт (83%)
Заголовок : Death Warrant (1990)
Библиотека кодирования : x264 core 128 r2216 198a7ea
Настройки программы : cabac=1 / ref=4 / deblock=1:-1:-1 / analyse=0x3:0x113 / me=umh / subme=10 / psy=1 / psy_rd=1.00:0.20 / mixed_ref=1 / me_range=32 / chroma_me=1 / trellis=2 / 8x8dct=1 / cqm=0 / deadzone=21,11 / fast_pskip=0 / chroma_qp_offset=-3 / threads=6 / lookahead_threads=1 / sliced_threads=0 / nr=0 / decimate=0 / interlaced=0 / bluray_compat=0 / constrained_intra=0 / bframes=6 / b_pyramid=2 / b_adapt=2 / b_bias=0 / direct=3 / weightb=1 / open_gop=0 / weightp=2 / keyint=240 / keyint_min=23 / scenecut=40 / intra_refresh=0 / rc=2pass / mbtree=0 / bitrate=20344 / ratetol=1.0 / qcomp=0.60 / qpmin=0 / qpmax=69 / qpstep=4 / cplxblur=20.0 / qblur=0.5 / ip_ratio=1.40 / pb_ratio=1.30 / aq=1:1.00
Язык : English
Default : Да
Forced : Нет
Аудио #1
Идентификатор : 2
Формат : AC-3
Формат/Информация : Audio Coding 3
Расширение режима : CM (complete main)
Параметр Endianness формата : Big
Идентификатор кодека : A_AC3
Продолжительность : 1 ч. 29 м.
Вид битрейта : Постоянный
Битрейт : 192 Кбит/сек
Каналы : 2 канала
Расположение каналов : Front: L R
Частота : 48,0 КГц
Битовая глубина : 16 бит
Метод сжатия : С потерями
Размер потока : 122 Мбайт (1%)
Заголовок : Профессиональный (многоголосый, закадровый) СТС
Язык : Russian
Default : Да
Forced : Нет
Аудио #2
Идентификатор : 3
Формат : AC-3
Формат/Информация : Audio Coding 3
Профиль формата : Dolby Digital
Расширение режима : CM (complete main)
Параметр Endianness формата : Big
Идентификатор кодека : A_AC3
Продолжительность : 1 ч. 29 м.
Вид битрейта : Постоянный
Битрейт : 224 Кбит/сек
Каналы : 2 канала
Расположение каналов : Front: L R
Частота : 48,0 КГц
Битовая глубина : 16 бит
Метод сжатия : С потерями
Размер потока : 143 Мбайт (1%)
Заголовок : MVO (HTB)
Язык : Russian
Default : Нет
Forced : Нет
Аудио #3
Идентификатор : 4
Формат : DTS
Формат/Информация : Digital Theater Systems
Режим : 16
Параметр Endianness формата : Big
Идентификатор кодека : A_DTS
Продолжительность : 1 ч. 29 м.
Вид битрейта : Постоянный
Битрейт : 1509 Кбит/сек
Каналы : 2 канала
Расположение каналов : Front: L R
Частота : 48,0 КГц
Битовая глубина : 24 бит
Метод сжатия : С потерями
Размер потока : 961 Мбайт (6%)
Заголовок : AVO (А.Гаврилов)
Язык : Russian
Default : Нет
Forced : Нет
Аудио #4
Идентификатор : 5
Формат : AC-3
Формат/Информация : Audio Coding 3
Расширение режима : CM (complete main)
Параметр Endianness формата : Big
Идентификатор кодека : A_AC3
Продолжительность : 1 ч. 29 м.
Вид битрейта : Постоянный
Битрейт : 224 Кбит/сек
Каналы : 2 канала
Расположение каналов : Front: L R
Частота : 48,0 КГц
Битовая глубина : 16 бит
Метод сжатия : С потерями
Размер потока : 143 Мбайт (1%)
Заголовок : MVO (1+1)
Язык : Ukrainian
Default : Нет
Forced : Нет
Аудио #5
Идентификатор : 6
Формат : DTS
Формат/Информация : Digital Theater Systems
Режим : 16
Параметр Endianness формата : Big
Идентификатор кодека : A_DTS
Продолжительность : 1 ч. 29 м.
Вид битрейта : Постоянный
Битрейт : 1509 Кбит/сек
Каналы : 2 канала
Расположение каналов : Front: L R
Частота : 48,0 КГц
Битовая глубина : 24 бит
Метод сжатия : С потерями
Размер потока : 961 Мбайт (6%)
Заголовок : Original
Язык : English
Default : Нет
Forced : Нет
Текст #1
Идентификатор : 7
Формат : UTF-8
Идентификатор кодека : S_TEXT/UTF8
Идентификатор кодека/Информация : UTF-8 Plain Text
Заголовок : Russian
Язык : Russian
Default : Нет
Forced : Нет
Текст #2
Идентификатор : 8
Формат : UTF-8
Идентификатор кодека : S_TEXT/UTF8
Идентификатор кодека/Информация : UTF-8 Plain Text
Заголовок : English - US - PSDH
Язык : English
Default : Нет
Forced : Нет
Меню
00:00:00.000 : en:Title/Credits/Intro
00:05:19.986 : en:Prison Problems
00:09:28.401 : en:New Home
00:15:58.499 : en:Your Own Kind
00:22:16.835 : en:A Need For Money
00:25:21.270 : en:Down To Business
00:33:30.008 : en:Medical Waste
00:36:32.232 : en:Breaking Records
00:42:44.479 : en:Good Man
00:46:57.398 : en:The Hole
00:51:52.067 : en:Conjugal Visit
00:55:57.854 : en:Truth Revealed
01:02:11.186 : en:Buying Life
01:08:19.929 : en:For Keeps
01:14:06.817 : en:The Depths Of Hell
01:24:30.983 : en:Even/End Credits

Скриншоты

торрент перелазит рассинхрон устранен
Скачать

Скачать торрент!

Как скачивать? · Что такое торрент? · Рейтинг и ограничения

Сайт не распространяет и не хранит электронные версии произведений, а лишь предоставляет доступ к создаваемому пользователями каталогу ссылок на торрент-файлы, которые содержат только списки хеш-сумм

[Профиль] [ЛС]
Показать сообщения:    
Ответить на тему

Текущее время: Сегодня 18:37

Часовой пояс: GMT + 4



Вы не можете начинать темы
Вы не можете отвечать на сообщения
Вы не можете редактировать свои сообщения
Вы не можете удалять свои сообщения
Вы не можете голосовать в опросах
Вы не можете прикреплять файлы к сообщениям
Вы не можете скачивать файлы