Ну, погоди! Выпуски 19-20 (Алексей Котеночкин) [2006 г., Мультфильм, DVDRip]

Ответить на тему
 
Автор Сообщение

user ®

Стаж: 7 лет 7 месяцев

Сообщений: 20008

Пост Пост: #1 от 02-Фев-2014 19:25

[Цитировать]

Ну, погоди! Выпуски 19-20
Страна: Россия
Жанр: Мультфильм
Продолжительность: 00:10:59 + 00:10:53
Год выпуска: 2006
Русские субтитры: нет
Режиссёр: Алексей Котёночкин
Описание:
19-й выпуск
На курорте
20-й выпуск
На даче
Качество: DVDRip-AVI
Видео: 688x528 (1.30:1), 25 fps, 25 fps, XviD MPEG-4 ~2394 kbps avg, 0.26 bit/pixel
Аудио: 48 kHz, AC3 Dolby Digital, 2/0 (L,R) ch, ~192 kbps
Субтитры: отсутствуют

Состав и описание

«НУ, ПОГОДИ! (Выпуск 19)», 2006 г., 00:10:59
Действие фильма происходит на курорте
«НУ, ПОГОДИ! (Выпуск 20)», 2006 г., 00:10:53
Действия фильма происходит на даче

Подробные технические данные

19

General
Complete name : D:\torrent\Nu Pogodi!\Ну Погоди 19.avi
Format : AVI
Format/Info : Audio Video Interleave
File size : 204 MiB
Duration : 10mn 59s
Overall bit rate : 2 597 Kbps
Movie name : Ну Погоди 19
Director : Nyc-2008
Writing application : VirtualDubMod 1.5.10.2 (build 2542/release)
Original source form/Name : Cartoon
Comment :
Video
ID : 0
Format : MPEG-4 Visual
Format profile : Advanced Simple@L5
Format settings, BVOP : 1
Format settings, QPel : No
Format settings, GMC : No warppoints
Format settings, Matrix : Default (MPEG)
Codec ID : XVID
Codec ID/Hint : XviD
Duration : 10mn 59s
Bit rate : 2 395 Kbps
Width : 688 pixels
Height : 528 pixels
Display aspect ratio : 4:3
Frame rate : 25.000 fps
Color space : YUV
Chroma subsampling : 4:2:0
Bit depth : 8 bits
Scan type : Progressive
Compression mode : Lossy
Bits/(Pixel*Frame) : 0.264
Stream size : 188 MiB (92%)
Writing library : XviD 64
Audio
ID : 1
Format : AC-3
Format/Info : Audio Coding 3
Mode extension : CM (complete main)
Format settings, Endianness : Big
Codec ID : 2000
Duration : 10mn 59s
Bit rate mode : Constant
Bit rate : 192 Kbps
Channel(s) : 2 channels
Channel positions : Front: L R
Sampling rate : 48.0 KHz
Bit depth : 16 bits
Compression mode : Lossy
Stream size : 15.1 MiB (7%)
Alignment : Split accross interleaves
Interleave, duration : 40 ms (1.00 video frame)
Interleave, preload duration : 500 ms

20

General
Complete name : D:\torrent\Nu Pogodi!\Ну Погоди 20.avi
Format : AVI
Format/Info : Audio Video Interleave
File size : 202 MiB
Duration : 10mn 53s
Overall bit rate : 2 596 Kbps
Movie name : Ну Погоди 20
Director : Nyc-2008
Writing application : VirtualDubMod 1.5.10.2 (build 2542/release)
Original source form/Name : Cartoon
Comment :
Video
ID : 0
Format : MPEG-4 Visual
Format profile : Advanced Simple@L5
Format settings, BVOP : 1
Format settings, QPel : No
Format settings, GMC : No warppoints
Format settings, Matrix : Default (MPEG)
Codec ID : XVID
Codec ID/Hint : XviD
Duration : 10mn 53s
Bit rate : 2 394 Kbps
Width : 688 pixels
Height : 528 pixels
Display aspect ratio : 4:3
Frame rate : 25.000 fps
Color space : YUV
Chroma subsampling : 4:2:0
Bit depth : 8 bits
Scan type : Progressive
Compression mode : Lossy
Bits/(Pixel*Frame) : 0.264
Stream size : 186 MiB (92%)
Writing library : XviD 64
Audio
ID : 1
Format : AC-3
Format/Info : Audio Coding 3
Mode extension : CM (complete main)
Format settings, Endianness : Big
Codec ID : 2000
Duration : 10mn 52s
Bit rate mode : Constant
Bit rate : 192 Kbps
Channel(s) : 2 channels
Channel positions : Front: L R
Sampling rate : 48.0 KHz
Bit depth : 16 bits
Compression mode : Lossy
Stream size : 14.9 MiB (7%)
Alignment : Split accross interleaves
Interleave, duration : 40 ms (1.00 video frame)
Interleave, preload duration : 500 ms

Скриншоты

Скачать

Скачать торрент!

Как скачивать? · Что такое торрент? · Рейтинг и ограничения

Сайт не распространяет и не хранит электронные версии произведений, а лишь предоставляет доступ к создаваемому пользователями каталогу ссылок на торрент-файлы, которые содержат только списки хеш-сумм

[Профиль] [ЛС]
Показать сообщения:    
Ответить на тему

Текущее время: Сегодня 14:10

Часовой пояс: GMT + 4



Вы не можете начинать темы
Вы не можете отвечать на сообщения
Вы не можете редактировать свои сообщения
Вы не можете удалять свои сообщения
Вы не можете голосовать в опросах
Вы не можете прикреплять файлы к сообщениям
Вы не можете скачивать файлы