Блэйд 3: Троица / Blade: Trinity (Дэвид С. Гойер / David S. Goyer) [2004, США, ужасы, фантастика, фэнтези, боевик, триллер, BDRip 720p] [UNRATED] 2x DVO (Tycoon-Studio, П.Гланц и И.Королева) + 2x AVO (Гаврилов, Королев) + Original Eng + sub Rus, Eng

Ответить на тему
 
Автор Сообщение

user ®

Стаж: 7 лет 7 месяцев

Сообщений: 20008

Пост Пост: #1 от 02-Фев-2014 16:15

[Цитировать]

Блэйд 3: Троица / Blade: Trinity [UNRATED]- Год выпуска: 2004
Выпущено: США
Жанр: ужасы, фантастика, фэнтези, боевик, триллер, приключения
Продолжительность: 02:02:21
Перевод: Профессиональный (двухголосый, закадровый) Tycoon-Studio
+ Авторский одноголосый А.Гаврилов
+ Профессиональный (двухголосый, закадровый) П.Гланц и И.Королева
+ Авторский одноголосый В.Королев
+ Оригинальная звуковая дорожка
Субтитры: Русские (2 вида: SDI Media Group, Tycoon-Studio), Английские (внешние srt*)-Режиссер: Дэвид С. Гойер / David S. Goyer
В ролях: Уэсли Снайпс, Крис Кристофферсон, Доминик Пёрселл, Джессика Бил, Райан Рейнольдс, Паркер Поузи, Марк Берри, Джон Майкл Хиггинс, Каллум Кит Ренни, Пол Левески
О фильме: Фатальные события могут привести к захвату власти в мире вампирами. Блэйд — единственный, кто может предотвратить страшные перемены и воспрепятствовать превращению мира в «Планету вампиров».
Стремясь помешать Блэйду в реализации его плана, верхушка вампиров во главе с Даникой Талос натравливают на него людей. Полиция начинает охоту на того, кого теперь все считают жутким монстром…-SbR!
Релиз: by delia
Формат: MKV
Видео: 1280x544 at 23.976 fps, x264@L4.1, ~10288 kbps avg
Аудио #1: Russian: 48 kHz, AC3, 3/2 (L,C,R,l,r) + LFE ch, ~448 kbps avg |Двухголосый закадровый, Tycoon-Studio|
Аудио #2: Russian: 48 kHz, AC3, 3/2 (L,C,R,l,r) + LFE ch, ~448 kbps avg|Одноголосый закадровый, |А.Гаврилов|
Аудио #3: Russian: 48 kHz, DTS-ES, 3/2 (L,C,R,l,r) + LFE ch, ~1509 kbps avg |Двухголосый закадровый, П.Гланц и И.Королева|
Аудио #4: Russian: 48 kHz, DTS, 3/2 (L,C,R,l,r) + LFE ch, ~1509 kbps avg |Одноголосый закадровый, В.Королев|
Аудио #5: Russian: 48 kHz, DTS, 3/2 (L,C,R,l,r) + LFE ch, ~1536.00 kbps avg |Одноголосый закадровый, Ю.Немахов|
Аудио #6: English: 48 kHz/24-bit, DTS-ES 3/2 (L,C,R,l,r) + LFE ch, ~1509.00 kbps avg
Семпл-

Source vs Encode






-

mInfo


Формат : Matroska
Версия формата : Version 4 / Version 2
Размер файла : 13,4 Гбайт
Продолжительность : 2 ч. 2 м.
Общий поток : 15,7 Мбит/сек
Дата кодирования : UTC 2014-02-01 20:43:47
Программа кодирования : mkvmerge v6.1.0 ('Old Devil') built on Mar 2 2013 14:32:37
Библиотека кодирования : libebml v1.3.0 + libmatroska v1.4.0
Видео
Идентификатор : 1
Формат : AVC
Формат/Информация : Advanced Video Codec
Профиль формата : High@L4.1
Параметр CABAC формата : Да
Параметр ReFrames формата : 12 кадров
Идентификатор кодека : V_MPEG4/ISO/AVC
Продолжительность : 2 ч. 2 м.
Битрейт : 9980 Кбит/сек
Ширина : 1280 пикселей
Высота : 544 пикселя
Соотношение сторон : 2,35:1
Режим частоты кадров : Постоянный
Частота кадров : 23,976 кадра/сек
Цветовое пространство : YUV
Субдискретизация насыщенности : 4:2:0
Битовая глубина : 8 бит
Тип развёртки : Прогрессивная
Бит/(Пиксели*Кадры) : 0.598
Размер потока : 8,53 Гбайт (64%)
Библиотека кодирования : x264 core 140 r2377kMod 1ca7bb9
Настройки программы : cabac=1 / ref=12 / deblock=1:-3:-3 / analyse=0x3:0x113 / me=esa / subme=10 / psy=1 / fade_compensate=0.00 / psy_rd=1.00:0.00 / mixed_ref=1 / me_range=32 / chroma_me=1 / trellis=2 / 8x8dct=1 / cqm=0 / deadzone=21,11 / fast_pskip=0 / chroma_qp_offset=-2 / threads=6 / lookahead_threads=1 / sliced_threads=0 / nr=0 / decimate=1 / interlaced=0 / bluray_compat=0 / constrained_intra=0 / fgo=0 / bframes=12 / b_pyramid=2 / b_adapt=2 / b_bias=0 / direct=3 / weightb=1 / open_gop=0 / weightp=2 / keyint=250 / keyint_min=23 / scenecut=40 / intra_refresh=0 / rc=crf / mbtree=0 / crf=14.5000 / qcomp=0.70 / qpmin=0 / qpmax=69 / qpstep=4 / ip_ratio=1.30 / pb_ratio=1.20 / aq=1:0.80
Язык : English
Default : Да
Forced : Нет
Основные цвета : BT.709
Характеристики трансфера : BT.709
Коэффициенты матрицы : BT.709
Аудио #1
Идентификатор : 2
Формат : AC-3
Формат/Информация : Audio Coding 3
Расширение режима : CM (complete main)
Параметр Endianness формата : Big
Идентификатор кодека : A_AC3
Продолжительность : 2 ч. 2 м.
Вид битрейта : Постоянный
Битрейт : 448 Кбит/сек
Каналы : 6 каналов
Расположение каналов : Front: L C R, Side: L R, LFE
Частота : 48,0 КГц
Битовая глубина : 16 бит
Метод сжатия : С потерями
Размер потока : 392 Мбайт (3%)
Заголовок : Двухголосый закадровый, Tycoon-Studio
Язык : Russian
Default : Да
Forced : Нет
Аудио #2
Идентификатор : 3
Формат : AC-3
Формат/Информация : Audio Coding 3
Расширение режима : CM (complete main)
Параметр Endianness формата : Big
Идентификатор кодека : A_AC3
Продолжительность : 2 ч. 2 м.
Вид битрейта : Постоянный
Битрейт : 448 Кбит/сек
Каналы : 6 каналов
Расположение каналов : Front: L C R, Side: L R, LFE
Частота : 48,0 КГц
Битовая глубина : 16 бит
Метод сжатия : С потерями
Размер потока : 392 Мбайт (3%)
Заголовок : Одноголосый закадровый, А.Гаврилов
Язык : Russian
Default : Нет
Forced : Нет
Аудио #3
Идентификатор : 4
Формат : DTS
Формат/Информация : Digital Theater Systems
Профиль формата : ES
Режим : 16
Параметр Endianness формата : Big
Идентификатор кодека : A_DTS
Продолжительность : 2 ч. 2 м.
Вид битрейта : Постоянный
Битрейт : 1509 Кбит/сек
Каналы : 7 каналов / 6 каналов
Расположение каналов : Front: L C R, Side: L R, Back: C, LFE / Front: L C R, Side: L R, LFE
Частота : 48,0 КГц
Битовая глубина : 24 бит
Метод сжатия : С потерями
Размер потока : 1,29 Гбайт (10%)
Заголовок : Двухголосый закадровый, П.Гланц и И.Королева
Язык : Russian
Default : Нет
Forced : Нет
Аудио #4
Идентификатор : 5
Формат : DTS
Формат/Информация : Digital Theater Systems
Режим : 16
Параметр Endianness формата : Big
Идентификатор кодека : A_DTS
Продолжительность : 2 ч. 2 м.
Вид битрейта : Постоянный
Битрейт : 1510 Кбит/сек
Каналы : 6 каналов
Расположение каналов : Front: L C R, Side: L R, LFE
Частота : 48,0 КГц
Битовая глубина : 24 бит
Метод сжатия : С потерями
Размер потока : 1,29 Гбайт (10%)
Заголовок : Одноголосый закадровый, В.Королев
Язык : Russian
Default : Нет
Forced : Нет
Аудио #5
Идентификатор : 6
Формат : DTS
Формат/Информация : Digital Theater Systems
Профиль формата : ES
Режим : 16
Параметр Endianness формата : Big
Идентификатор кодека : A_DTS
Продолжительность : 2 ч. 2 м.
Вид битрейта : Постоянный
Битрейт : 1509 Кбит/сек
Каналы : 7 каналов / 6 каналов
Расположение каналов : Front: L C R, Side: L R, Back: C, LFE / Front: L C R, Side: L R, LFE
Частота : 48,0 КГц
Битовая глубина : 24 бит
Метод сжатия : С потерями
Размер потока : 1,29 Гбайт (10%)
Язык : English
Default : Нет
Forced : Нет
Текст #1
Идентификатор : 7
Формат : UTF-8
Идентификатор кодека : S_TEXT/UTF8
Идентификатор кодека/Информация : UTF-8 Plain Text
Язык : Russian
Default : Нет
Forced : Нет
Текст #2
Идентификатор : 8
Формат : UTF-8
Идентификатор кодека : S_TEXT/UTF8
Идентификатор кодека/Информация : UTF-8 Plain Text
Язык : Russian
Default : Нет
Forced : Нет
Текст #3
Идентификатор : 9
Формат : UTF-8
Идентификатор кодека : S_TEXT/UTF8
Идентификатор кодека/Информация : UTF-8 Plain Text
Язык : English
Default : Нет
Forced : Нет
Меню
00:00:00.000 : en:00:00:00.000
00:06:47.032 : en:00:06:47.032
00:12:58.152 : en:00:12:58.152
00:17:14.825 : en:00:17:14.825
00:18:47.293 : en:00:18:47.293
00:22:46.824 : en:00:22:46.824
00:27:03.789 : en:00:27:03.789
00:34:20.517 : en:00:34:20.517
00:41:05.171 : en:00:41:05.171
00:45:37.985 : en:00:45:37.985
00:50:52.299 : en:00:50:52.299
00:54:07.202 : en:00:54:07.202
00:58:04.106 : en:00:58:04.106
01:08:00.576 : en:01:08:00.576
01:17:49.623 : en:01:17:49.623
01:21:54.618 : en:01:21:54.618
01:28:26.510 : en:01:28:26.510
01:33:24.474 : en:01:33:24.474
01:41:25.246 : en:01:41:25.246
01:46:06.235 : en:01:46:06.235
01:50:38.173 : en:01:50:38.173
01:53:45.193 : en:01:53:45.193

-

*** Сохранены оригинальные чаптеры как на Blu-ray.
*** За исходники спасибо Volshebnik
*** Tycoon-Studio: Внимание!!! В переводе присутствует ненормативная лексика!
-
Скачать

Скачать торрент!

Как скачивать? · Что такое торрент? · Рейтинг и ограничения

Сайт не распространяет и не хранит электронные версии произведений, а лишь предоставляет доступ к создаваемому пользователями каталогу ссылок на торрент-файлы, которые содержат только списки хеш-сумм

[Профиль] [ЛС]
Показать сообщения:    
Ответить на тему

Текущее время: Сегодня 23:49

Часовой пояс: GMT + 4



Вы не можете начинать темы
Вы не можете отвечать на сообщения
Вы не можете редактировать свои сообщения
Вы не можете удалять свои сообщения
Вы не можете голосовать в опросах
Вы не можете прикреплять файлы к сообщениям
Вы не можете скачивать файлы