Контакт 2011 (Сергей Борчуков) [2012 г., фантастика, TVRip]

Ответить на тему
 
Автор Сообщение

user ®

Стаж: 7 лет 7 месяцев

Сообщений: 20008

Пост Пост: #1 от 02-Фев-2014 16:15

[Цитировать]

Контакт 2011Год выпуска: 2012.
Жанр: фантастика.
Продолжительность: 01:35:21.
Режиссер: Сергей Борчуков.
В ролях:
Алексей Горбунов, Дмитрий Орлов, Ирина Лачина, Александр Анисимов, Константин Соловьев, Людмила Кутепова, Олег Леушин, Олег Кныш, Алексей Андреев, Евгений Крылов.
Описание:
Экипаж космического корабля возвращается на Землю. На спускаемом аппарате обнаружены значительные внешние повреждения, не совместимые с жизнью космонавтов, но не смотря на это, они живы. Более того, ни на одном из них нет ни единой царапины. Все органы функционируют нормально. Единственная проблема - все они находятся в коме, и врачам не удаётся вывести их из этого состояния. Кроме того, у них в крови обнаружено странное вещество, аналогов которому до сегодняшнего дня на Земле не было. Об этом узнает Виктор - сам в прошлом космонавт, выгнанный из отряда, сейчас игрок, любитель казино и алкоголя. Подвергаясь большой опасности, ему предстоит узнать секрет инопланетного вещества...
Доп. информация:
Страна: Россия .
Автор идеи: Олег Калашников.
Авторы сценария: Вадим Шахнович, Константин Сидоров.
Оператор: Олег Тиняков.
Композитор: Антон Ильин.
Релиз
Рип sharky.

Качество: TVRip
Формат: AVI
Видео: 704x400 (1.76:1), 25 fps, DivX Codec 5.x or 6.x ~2044 kbps avg, 0.29 bit/pixel
Аудио: 48 kHz, MPEG Layer 3, 2 ch, ~128.00 kbps avg

Отчет MediaInfo

Общее
Полное имя : Kontakt.2011.2012.DivX.TVRip.fenixclub.avi
Format : AVI
Format/Info : Audio Video Interleave
File size : 1.45 GiB
Duration : 1h 35mn
Overall bit rate : 2 182 Kbps
Video
ID : 0
Format : MPEG-4 Visual
Format settings, BVOP : 1
Format settings, QPel : No
Format settings, GMC : No warppoints
Format settings, Matrix : Default (H.263)
Muxing mode : Packed bitstream
Codec ID : DX50
Codec ID/Hint : DivX 5
Duration : 1h 35mn
Bit rate : 2 044 Kbps
Width : 704 pixels
Height : 400 pixels
Display aspect ratio : 16:9
Frame rate : 25.000 fps
Color space : YUV
Chroma subsampling : 4:2:0
Bit depth : 8 bits
Scan type : Progressive
Compression mode : Lossy
Bits/(Pixel*Frame) : 0.290
Stream size : 1.36 GiB (94%)
Title : Video
Writing library : DivX 3013
Audio
ID : 1
Format : MPEG Audio
Format version : Version 1
Format profile : Layer 3
Codec ID : 55
Codec ID/Hint : MP3
Duration : 1h 35mn
Bit rate mode : Constant
Bit rate : 128 Kbps
Channel(s) : 2 channels
Sampling rate : 48.0 KHz
Compression mode : Lossy
Stream size : 87.3 MiB (6%)
Alignment : Split accross interleaves
Interleave, duration : 40 ms (1.00 video frame)
Interleave, preload duration : 500 ms
Title : Audio

Скриншот с названием

Скриншоты


Альтернативный хост


Скачать

Скачать торрент!

Как скачивать? · Что такое торрент? · Рейтинг и ограничения

Сайт не распространяет и не хранит электронные версии произведений, а лишь предоставляет доступ к создаваемому пользователями каталогу ссылок на торрент-файлы, которые содержат только списки хеш-сумм

[Профиль] [ЛС]
Показать сообщения:    
Ответить на тему

Текущее время: Сегодня 08:08

Часовой пояс: GMT + 4



Вы не можете начинать темы
Вы не можете отвечать на сообщения
Вы не можете редактировать свои сообщения
Вы не можете удалять свои сообщения
Вы не можете голосовать в опросах
Вы не можете прикреплять файлы к сообщениям
Вы не можете скачивать файлы