Банальная история (Иосиф Боярский) [1962 г., мультфильм, философский, DVB]

Ответить на тему
 
Автор Сообщение

user ®

Стаж: 7 лет 7 месяцев

Сообщений: 20008

Пост Пост: #1 от 02-Фев-2014 01:00

[Цитировать]

Банальная история
Жанр: мультфильм, философский
Год выпуска: 1962
Продолжительность: 00:09:12
Режиссёр: Иосиф Боярский
Описание: по мотивам сказки - сценария Аркадия Георгиевича Снесарева. Приключения изящного мужского ботинка и его любви к туфельке - житейские итории, разыграные обычными вещами ...

Трансляция спутникового канала:

Качество видео: DVB
Формат видео: MPEG-PS
Видео: MPEG2 Video, 544x576@768x576 (4:3), анаморф, 25 fps, 2900 kbps
Аудио: MPEG Audio, 2 сh, 48 kHz, 192 kbps

MediaInfo

D:\Банальная история. (1962)_DVB by RG multfilms .mpg
General
Complete name : D:\Банальная история. (1962)_DVB by RG multfilms .mpg
Format : MPEG-PS
File size : 209 MiB
Duration : 9mn 12s
Overall bit rate mode : Variable
Overall bit rate : 3 179 Kbps
Video #224
ID : 224 (0xE0)
Format : MPEG Video
Format version : Version 2
Format profile : Main@Main
Format settings, BVOP : Yes
Format settings, Matrix : Custom
Format settings, GOP : Variable
Duration : 9mn 12s
Bit rate mode : Variable
Bit rate : 2 923 Kbps
Maximum bit rate : 15.0 Mbps
Width : 544 pixels
Height : 576 pixels
Display aspect ratio : 4:3
Frame rate : 25.000 fps
Color space : YUV
Chroma subsampling : 4:2:0
Bit depth : 8 bits
Scan type : Interlaced
Scan order : Top Field First
Compression mode : Lossy
Bits/(Pixel*Frame) : 0.373
Time code of first frame : 00:00:00:00
Time code source : Group of pictures header
Stream size : 192 MiB (92%)
Audio #192
ID : 192 (0xC0)
Format : MPEG Audio
Format version : Version 1
Format profile : Layer 2
Duration : 9mn 12s
Bit rate mode : Constant
Bit rate : 192 Kbps
Channel(s) : 2 channels
Sampling rate : 48.0 KHz
Compression mode : Lossy
Stream size : 12.6 MiB (6%)

Скриншоты


Скачать

Скачать торрент!

Как скачивать? · Что такое торрент? · Рейтинг и ограничения

Сайт не распространяет и не хранит электронные версии произведений, а лишь предоставляет доступ к создаваемому пользователями каталогу ссылок на торрент-файлы, которые содержат только списки хеш-сумм

[Профиль] [ЛС]
Показать сообщения:    
Ответить на тему

Текущее время: Сегодня 06:21

Часовой пояс: GMT + 4



Вы не можете начинать темы
Вы не можете отвечать на сообщения
Вы не можете редактировать свои сообщения
Вы не можете удалять свои сообщения
Вы не можете голосовать в опросах
Вы не можете прикреплять файлы к сообщениям
Вы не можете скачивать файлы