Железнодорожный романс (Иван Соловов) ТВ [2003, драма, DVDRip-AVC]

Ответить на тему
 
Автор Сообщение

user ®

Стаж: 7 лет 7 месяцев

Сообщений: 20008

Пост Пост: #1 от 31-Янв-2014 22:05

[Цитировать]

Железнодорожный романс Жанр: драма
Год выпуска: 2003
Продолжительность: 00:50:19 + 00:51:18
Режиссёр: Иван Соловов
В ролях: Егор Бероев, Ольга Будина, Нина Гребешкова, Леонид Куравлёв, Александр Семчев, Ольга Балашова, Алексей Франдетти, Анна Воронова, Алексей Анненков, Владимир Надеин
Описание: Обаятельный и добродушный москвич Алексей встречает девушку своей мечты и придумывает весьма оригинальный способ для объяснения с возлюбленной. Но вместо свидания попадает в переделку, которая стоит ему потери работы и квартиры. На долгие годы, он оказывается невольным скитальцем, бегущим от правоохранительных органов, в конфликт с которыми невольно вступил... И в один день накануне Нового года давняя любовь Алексея вновь напоминает о себе и заставляет героя пойти на самую фантастическую и рискованную авантюру в его жизни.
Качество: DVDRip-AVC
Формат: MKV
1-я серия
Видео: AVC, 704x464@770x464, 25fps, 1764kbps
Аудио: AC3, 48000Hz, 320kbps, 5ch
2-я серия
Видео: AVC, 704x464@770x464, 25fps, 1585kbps
Аудио: AC3, 48000Hz, 448kbps, 5ch

MediaInfo

General
Unique ID : 178446857460872837617543074944407617954 (0x863F9D582AB79C4CA2790351B4F8C1A2)
Complete name : E:\Железнодорожный романс\1-я серия.mkv
Format : Matroska
Format version : Version 2
File size : 747 MiB
Duration : 50mn 18s
Overall bit rate : 2 075 Kbps
Encoded date : UTC 2014-01-28 21:01:54
Writing application : mkvmerge v4.0.0 ('The Stars were mine') сборка от Jun 6 2010 16:18:42
Writing library : libebml v1.0.0 + libmatroska v1.0.0
Video
ID : 1
Format : AVC
Format/Info : Advanced Video Codec
Format profile : High@L4.1
Format settings, CABAC : Yes
Format settings, ReFrames : 9 frames
Codec ID : V_MPEG4/ISO/AVC
Duration : 50mn 18s
Bit rate : 1 754 Kbps
Width : 704 pixels
Height : 464 pixels
Display aspect ratio : 1.659
Original display aspect ratio : 1.660
Frame rate : 25.000 fps
Color space : YUV
Chroma subsampling : 4:2:0
Bit depth : 8 bits
Scan type : Progressive
Bits/(Pixel*Frame) : 0.215
Stream size : 617 MiB (83%)
Title : DVDRip by fozzy412
Writing library : x264 core 138 r2358 9e941d1
Encoding settings : cabac=1 / ref=9 / deblock=1:-2:-1 / analyse=0x3:0x133 / me=umh / subme=9 / psy=1 / psy_rd=1.00:0.00 / mixed_ref=1 / me_range=24 / chroma_me=1 / trellis=2 / 8x8dct=1 / cqm=0 / deadzone=21,11 / fast_pskip=1 / chroma_qp_offset=-2 / threads=6 / lookahead_threads=1 / sliced_threads=0 / nr=0 / decimate=1 / interlaced=0 / bluray_compat=0 / constrained_intra=0 / bframes=8 / b_pyramid=2 / b_adapt=2 / b_bias=0 / direct=3 / weightb=1 / open_gop=0 / weightp=2 / keyint=250 / keyint_min=1 / scenecut=40 / intra_refresh=0 / rc_lookahead=60 / rc=2pass / mbtree=1 / bitrate=1754 / ratetol=1.0 / qcomp=0.60 / qpmin=0 / qpmax=69 / qpstep=4 / cplxblur=20.0 / qblur=0.5 / vbv_maxrate=62500 / vbv_bufsize=78125 / nal_hrd=none / ip_ratio=1.40 / aq=1:1.00
Language : Russian
Audio
ID : 2
Format : AC-3
Format/Info : Audio Coding 3
Mode extension : CM (complete main)
Codec ID : A_AC3
Duration : 50mn 18s
Bit rate mode : Constant
Bit rate : 320 Kbps
Channel(s) : 5 channels
Channel positions : Front: L C R, Side: L R
Sampling rate : 48.0 KHz
Bit depth : 16 bits
Compression mode : Lossy
Stream size : 115 MiB (15%)
Title : AC3 5.0
Language : Russian
General
Unique ID : 202395011123483702344816447931781974416 (0x9843DC7AFE50195083B816CBDB978990)
Complete name : E:\Железнодорожный романс\2-я серия.mkv
Format : Matroska
Format version : Version 2
File size : 747 MiB
Duration : 51mn 18s
Overall bit rate : 2 034 Kbps
Encoded date : UTC 2014-01-31 13:42:58
Writing application : mkvmerge v4.0.0 ('The Stars were mine') сборка от Jun 6 2010 16:18:42
Writing library : libebml v1.0.0 + libmatroska v1.0.0
Video
ID : 1
Format : AVC
Format/Info : Advanced Video Codec
Format profile : High@L4.1
Format settings, CABAC : Yes
Format settings, ReFrames : 9 frames
Codec ID : V_MPEG4/ISO/AVC
Duration : 51mn 18s
Bit rate : 1 585 Kbps
Width : 704 pixels
Height : 464 pixels
Display aspect ratio : 1.659
Original display aspect ratio : 1.660
Frame rate : 25.000 fps
Color space : YUV
Chroma subsampling : 4:2:0
Bit depth : 8 bits
Scan type : Progressive
Bits/(Pixel*Frame) : 0.194
Stream size : 567 MiB (76%)
Title : DVDRip by fozzy412
Writing library : x264 core 138 r2358 9e941d1
Encoding settings : cabac=1 / ref=9 / deblock=1:-2:-1 / analyse=0x3:0x133 / me=umh / subme=9 / psy=1 / psy_rd=1.00:0.00 / mixed_ref=1 / me_range=24 / chroma_me=1 / trellis=2 / 8x8dct=1 / cqm=0 / deadzone=21,11 / fast_pskip=1 / chroma_qp_offset=-2 / threads=6 / lookahead_threads=1 / sliced_threads=0 / nr=0 / decimate=1 / interlaced=0 / bluray_compat=0 / constrained_intra=0 / bframes=8 / b_pyramid=2 / b_adapt=2 / b_bias=0 / direct=3 / weightb=1 / open_gop=0 / weightp=2 / keyint=250 / keyint_min=1 / scenecut=40 / intra_refresh=0 / rc_lookahead=60 / rc=2pass / mbtree=1 / bitrate=1585 / ratetol=1.0 / qcomp=0.60 / qpmin=0 / qpmax=69 / qpstep=4 / cplxblur=20.0 / qblur=0.5 / vbv_maxrate=62500 / vbv_bufsize=78125 / nal_hrd=none / ip_ratio=1.40 / aq=1:1.00
Language : Russian
Audio
ID : 2
Format : AC-3
Format/Info : Audio Coding 3
Mode extension : CM (complete main)
Codec ID : A_AC3
Duration : 51mn 18s
Bit rate mode : Constant
Bit rate : 448 Kbps
Channel(s) : 5 channels
Channel positions : Front: L C R, Side: L R
Sampling rate : 48.0 KHz
Bit depth : 16 bits
Compression mode : Lossy
Stream size : 164 MiB (22%)
Title : AC3 5.0
Language : Russian

Скриншоты

Скачать

Скачать торрент!

Как скачивать? · Что такое торрент? · Рейтинг и ограничения

Сайт не распространяет и не хранит электронные версии произведений, а лишь предоставляет доступ к создаваемому пользователями каталогу ссылок на торрент-файлы, которые содержат только списки хеш-сумм

[Профиль] [ЛС]
Показать сообщения:    
Ответить на тему

Текущее время: Сегодня 22:25

Часовой пояс: GMT + 4



Вы не можете начинать темы
Вы не можете отвечать на сообщения
Вы не можете редактировать свои сообщения
Вы не можете удалять свои сообщения
Вы не можете голосовать в опросах
Вы не можете прикреплять файлы к сообщениям
Вы не можете скачивать файлы