The Prodigy - Live World's On Fire (2011) [2011 г., Electronic & Breakbeat, DVD9]

Ответить на тему
 
Автор Сообщение

ornitocopter ®

Пол:

Стаж: 6 лет 7 месяцев

Сообщений: 15

Откуда: Ураина

Пост Пост: #1 от 31-Янв-2014 09:23

[Цитировать]

The Prodigy - Live World's On Fire (2011)- Исполнитель: The Prodigy
Страна: Великобритания
Жанр: Electronic & Breakbeat
Оригинальное название: Live World's On Fire
Год выхода: 2011
Продолжительность: 01:10:18
Формат: DVD, digipack, DVD box
Альбом: WORLD'S ON FIRE
Лейбл: SOYUZ MUSIC
Каталожный номер: 4601250208688
Производство: Россия
Дата выпуска: 2011
Качество: DVD9
Видео: 16:9 (720x480@853x480) VBR
Аудио: Английский (Dolby AC3, 6 ch), английский (Dolby AC3, 2 ch) = 448 Кбит/сек-Описание:
В самом конце марта 2011 года в ряде британских кинотеатров был показан концертный фильм группы The Prodigy “World's On Fire”. В середине мая лента доберется и до зрителей нашей страны. 17 мая фильм можно будет посмотреть в нескольких десятках городов. На сегодняшний день заявлены сеансы в Оренбурге, Твери, Самаре, Екатеринбурге, Волгограде, Волжском, Владивостоке, Тюмени, Комсомольске-на-Амуре, Кирове, Белгороде, Санкт-Петербурге, Омске, Артеме, Ростове-на-Дону, Уфе, Улан-Удэ, Ульяновске, Алматы, Новокузнецке, Петропавловске-Камчатском, Орле, Краснодаре, Новороссийске и Каменск-Уральском. В Ярославле картина будет показана 23 мая. Представители компании-дистрибьютора «Невафильм» сообщают, что в дальнейшем список городов будет расширяться. Материал для фильма “World's On Fire” был отснят на фестивале Warrior's Dance, организованном самими The Prodigy. Мероприятие проходило в британском городе Милтон Кейнс 24 июля 2010 года. В фильм включены 17 песен, исполненных The Prodigy на фестивале, в том числе такие хиты, как “Breathe”, “Voodoo People” и “Firestarter”.
Лучшая электронная панк-рок-группа The Prodigy накануне очередного московского выступления на фестивале Maxidrom выпускает фильм-концерт World's On Fire, эффектно зафиксировавший их крупнейшее выступление на фестивале Warrior's Dance, прошедшем в британском городе Мильтон Кейнс в июле прошлого года. Тогда The Prodigy «порвали» 65 000 человек — внимательные фэны отмечают, что в этом августе властелины школьных дискотек середины 90-х должны в несколько раз улучшить собственный рекорд, выступив на польском Вудстоке — который, к слову, бесплатный, и обещает собрать несколько сотен тысяч «колбасеров».
Впрочем, World's On Fire не только утешает тех, кто никогда не видел The Prodigy в Европе, этот видео-релиз скорее самостоятельное произведение искусства — поэтому перед выпуском на носителях музыканты даже запустили его в ограниченный прокат по кинотеатрам. Обычно такие широкие жесты позволяют себе только престарелые рок-звезды, но в фильме World's On Fire действительно есть на что посмотреть — это очевидно даже по одной песне «Omen»-Треклист:
"Live Warriors Dance Festival Milton Keynes Bowl"
1. intro
2. breathe
3. omen
4. colours
5. thunder
6. warrior’s dance
7. firestarter
8. run with the wolves
9. weather experience
10. voodoo people
11. omen reprise
12. invaders must die
13. smack my bitch up
14. take me to the hospital
15. everybody in the place
16. their law
17. out of space
end credits audio – black smoke photo gallery audio – invaders must die, south central bootleg mix-Видео:
INVADERS ALIVE - DVD EXTRA CONTENT
1. run with the wolves, brixton, london
2. spitfire / mescaline, brazil
3. breathe, slane castle, ireland
4. poison, glastonbury, england
5. warning, t in the park , scotland
6. japanese film
7. smack my bitch up, isle of wight to download, England
8. usa film
9. uk arena tour film
10. voodoo, bestival and paris france.-

MediaInfo Видео

Аудио #1
Идентификатор: 224 (0xE0)
Формат: MPEG Video
Версия формата: Version 2
Профиль формата: Main@Main
Параметр BVOP формата: Да
Параметр матрицы формата: По умолчанию
Продолжительность: 20 м.
Вид битрейта: Переменный
Битрейт: 6064 Кбит/сек
Номинальный битрейт: 9800 Кбит/сек
Ширина: 720 пикс.
Высота: 480 пикс.
Соотношение сторон: 16:9
Частота кадров: 29,970 кадр/сек
Стандарт вещания: NTSC
Цветовое пространство: YUV
Подвыборка цветности: 4:2:0
Битовая глубина: 8 бит
Тип развёртки: Чересстрочная
Порядок развёртки: Нижнее поле первое
Метод сжатия: С потерями
Бит Пиксели Кадры: 0.585
Размер потока: 874 Мбайт (85%)
Аудио #2
Идентификатор: 189 (0xBD)-128 (0x80)
Формат: AC-3
Формат/Информация: Audio Coding 3
Расширение режима: CM (complete main)
Режим смешивания: DVD-Video
Продолжительность: 20 м.
Вид битрейта: Постоянный
Битрейт: 448 Кбит/сек
Каналы: 2 канала
Расположение каналов: Front: L R
Частота: 48,0 КГц
Битовая глубина: 16 бит
Метод сжатия: С потерями
Размер потока: 64,6 Мбайт (6%)
Аудио #3
Идентификатор: 189 (0xBD)-129 (0x81)
Формат: AC-3
Формат/Информация: Audio Coding 3
Расширение режима: CM (complete main)
Режим смешивания: DVD-Video
Продолжительность: 20 м.
Вид битрейта: Постоянный
Битрейт: 448 Кбит/сек
Каналы: 6 каналов
Расположение каналов: Front L C R, Side L R, LFE
Частота: 48,0 КГц
Битовая глубина: 16 бит
Метод сжатия: С потерями
Размер потока: 64,6 Мбайт (6%)
-

Скриншоты меню

-

Скриншоты

-
Скачать

Скачать торрент!

Как скачивать? · Что такое торрент? · Рейтинг и ограничения

Сайт не распространяет и не хранит электронные версии произведений, а лишь предоставляет доступ к создаваемому пользователями каталогу ссылок на торрент-файлы, которые содержат только списки хеш-сумм

загрузка...
[Профиль] [ЛС]
Показать сообщения:    
Ответить на тему

Текущее время: Сегодня 17:08

Часовой пояс: GMT + 4



Вы не можете начинать темы
Вы не можете отвечать на сообщения
Вы не можете редактировать свои сообщения
Вы не можете удалять свои сообщения
Вы не можете голосовать в опросах
Вы не можете прикреплять файлы к сообщениям
Вы не можете скачивать файлы