Маньяк-полицейский 3: Знак молчания / Maniac Cop 3: Badge of Silence (Уильям Ластиг / William Lustig) [1993, США, Триллер, ужасы, BDRip 720p ] AVO (Е. Гранкин) + Sub (Rus, Eng) + Original Eng

Ответить на тему
 
Автор Сообщение

user ®

Стаж: 7 лет 7 месяцев

Сообщений: 20008

Пост Пост: #1 от 31-Янв-2014 01:00

[Цитировать]

Маньяк-полицейский 3: Знак молчания / Maniac Cop 3: Badge of Silence- Страна: США
Студия: NEO Motion Pictures, First Look Pictures
Жанр: Триллер, ужасы
Год выпуска: 1993
Продолжительность: 01:24:42-Перевод: Авторский (одноголосый закадровый) Е. Гранкин
Cубтитры: русские, английские
Оригинальная аудиодорожка: английский-Режиссер: Уильям Ластиг / William Lustig-В ролях: Роберт Дави, Роберт З’Дар, Кэйтлин Дюлэйни, Гретчен Бекер, Пол Глисон, Джеки Эрл Хейли, Джулиус Харрис, Гранд Л. Буш, Даг Сэвант, Роберт Форстер-Описание: Роберт Дави играет хорошего полицейского, вовлеченного в опасную погоню за Корделлом, «маньяком — полицейским», вершащим на улицах Нью-Йорка кровавое правосудие по собственному усмотрению. На этот раз Корделл восстает из могилы для того, чтобы вернуть доброе имя находящейся в коме женщине — полицейской Кэйт.
Она получила пулю в перестрелке и ее же обвинили в жестоком убийстве «случайного посетителя», который на самом деле был наркоманом — грабителем, захватившим заложницу. А подставили Кэт телерепортеры, подтасовавшие видеозапись при монтаже. Но наводящий ужас в своей безжалостной мести «маньяк — полицейский» готов разобраться со всеми «плохими парнями».-Сэмпл-Тип релиза: BDRip 720p
Контейнер: MKV-Видео: MPEG-4 AVC, 1280x544 (2.35:1), 5740 kbps, 23,976 fps, 0,344 bpp
Аудио: Rassian /; AC3 /; 2.0 /; 48 kHz /; 192 kbps /; 16 bit; |Е. Гранкин|
Аудио 2: English /; AC3 /; 6.0 /; 48 kHz /; 640 kbps /; 16 bit
-

MediaInfo

Общее
Уникальный идентификатор : 219377488362727768610725354149205791163 (0xA50A9140E101DB1EB3009B5A730C51BB)
Полное имя : C:\Users\к\Desktop\фильмы\Maniac.Cop-3.1993.x264.BDRip.(720p).mkv
Формат : Matroska
Версия формата : Version 4 / Version 2
Размер файла : 3,88 Гбайт
Продолжительность : 1 ч. 24 м.
Общий поток : 6565 Кбит/сек
Дата кодирования : UTC 2014-01-30 06:02:39
Программа кодирования : mkvmerge v6.3.0 ('You can't stop me!') built on Jun 28 2013 20:09:41
Библиотека кодирования : libebml v1.3.0 + libmatroska v1.4.0
Видео
Идентификатор : 1
Формат : AVC
Формат/Информация : Advanced Video Codec
Профиль формата : High@L4.1
Параметр CABAC формата : Да
Параметр ReFrames формата : 9 кадров
Идентификатор кодека : V_MPEG4/ISO/AVC
Продолжительность : 1 ч. 24 м.
Битрейт : 5740 Кбит/сек
Ширина : 1280 пикселей
Высота : 544 пикселя
Соотношение сторон : 2,35:1
Режим частоты кадров : Постоянный
Частота кадров : 23,976 кадра/сек
Цветовое пространство : YUV
Субдискретизация насыщенности : 4:2:0
Битовая глубина : 8 бит
Тип развёртки : Прогрессивная
Бит/(Пиксели*Кадры) : 0.344
Размер потока : 3,31 Гбайт (85%)
Библиотека кодирования : x264 core 130 r2273 b3065e6
Настройки программы : cabac=1 / ref=9 / deblock=1:-3:-3 / analyse=0x3:0x113 / me=umh / subme=11 / psy=1 / psy_rd=1.00:0.20 / mixed_ref=1 / me_range=64 / chroma_me=1 / trellis=2 / 8x8dct=1 / cqm=0 / deadzone=21,11 / fast_pskip=0 / chroma_qp_offset=-3 / threads=6 / lookahead_threads=1 / sliced_threads=0 / nr=0 / decimate=0 / interlaced=0 / bluray_compat=0 / constrained_intra=0 / bframes=13 / b_pyramid=2 / b_adapt=2 / b_bias=0 / direct=3 / weightb=1 / open_gop=0 / weightp=2 / keyint=250 / keyint_min=25 / scenecut=40 / intra_refresh=0 / rc=2pass / mbtree=0 / bitrate=5740 / ratetol=1.0 / qcomp=0.60 / qpmin=0 / qpmax=69 / qpstep=4 / cplxblur=20.0 / qblur=0.5 / ip_ratio=1.40 / pb_ratio=1.30 / aq=1:0.80
Язык : English
Default : Да
Forced : Нет
Аудио #1
Идентификатор : 2
Формат : AC-3
Формат/Информация : Audio Coding 3
Расширение режима : CM (complete main)
Параметр Endianness формата : Big
Идентификатор кодека : A_AC3
Продолжительность : 1 ч. 24 м.
Вид битрейта : Постоянный
Битрейт : 192 Кбит/сек
Каналы : 2 канала
Расположение каналов : Front: L R
Частота : 48,0 КГц
Битовая глубина : 16 бит
Метод сжатия : С потерями
Размер потока : 116 Мбайт (3%)
Заголовок : Авторский одноголосый (Е. Гранкин)
Язык : Russian
Default : Да
Forced : Нет
Аудио #2
Идентификатор : 3
Формат : AC-3
Формат/Информация : Audio Coding 3
Расширение режима : CM (complete main)
Параметр Endianness формата : Big
Идентификатор кодека : A_AC3
Продолжительность : 1 ч. 24 м.
Вид битрейта : Постоянный
Битрейт : 640 Кбит/сек
Каналы : 6 каналов
Расположение каналов : Front: L C R, Side: L R, LFE
Частота : 48,0 КГц
Битовая глубина : 16 бит
Метод сжатия : С потерями
Размер потока : 388 Мбайт (10%)
Язык : English
Default : Нет
Forced : Нет
Текст #1
Идентификатор : 4
Формат : UTF-8
Идентификатор кодека : S_TEXT/UTF8
Идентификатор кодека/Информация : UTF-8 Plain Text
Язык : Russian
Default : Нет
Forced : Нет
Текст #2
Идентификатор : 5
Формат : UTF-8
Идентификатор кодека : S_TEXT/UTF8
Идентификатор кодека/Информация : UTF-8 Plain Text
Язык : English
Default : Нет
Forced : Нет
Меню
00:00:00.000 : :Chapter 01
00:05:00.000 : :Chapter 02
00:10:00.000 : :Chapter 03
00:15:00.000 : :Chapter 04
00:20:00.000 : :Chapter 05
00:25:00.000 : :Chapter 06
00:30:00.000 : :Chapter 07
00:35:00.000 : :Chapter 08
00:40:00.000 : :Chapter 09
00:45:00.000 : :Chapter 10
00:50:00.000 : :Chapter 11
00:55:00.000 : :Chapter 12
01:00:00.000 : :Chapter 13
01:05:00.000 : :Chapter 14
01:10:00.000 : :Chapter 15
01:15:00.000 : :Chapter 16
01:20:00.000 : :Chapter 17

-

Скриншоты

30.01.14. торрент фай перелазит, заменена аудио дорога Original Eng
Скачать

Скачать торрент!

Как скачивать? · Что такое торрент? · Рейтинг и ограничения

Сайт не распространяет и не хранит электронные версии произведений, а лишь предоставляет доступ к создаваемому пользователями каталогу ссылок на торрент-файлы, которые содержат только списки хеш-сумм

[Профиль] [ЛС]
Показать сообщения:    
Ответить на тему

Текущее время: Сегодня 21:21

Часовой пояс: GMT + 4



Вы не можете начинать темы
Вы не можете отвечать на сообщения
Вы не можете редактировать свои сообщения
Вы не можете удалять свои сообщения
Вы не можете голосовать в опросах
Вы не можете прикреплять файлы к сообщениям
Вы не можете скачивать файлы