Корабельные новости / The Shipping News (Лассе Халльстрём / Lasse Hallstrem) [2001, США, драма, мелодрама, BDRemux 1080p] Dub + Original eng + Sub rus, eng

Ответить на тему
 
Автор Сообщение

user ®

Стаж: 7 лет 7 месяцев

Сообщений: 20008

Пост Пост: #1 от 29-Янв-2014 20:45

[Цитировать]

Корабельные новости / The Shipping News
Страна: США
Жанр: драма, мелодрама
Год выпуска: 2001
Продолжительность: 01:51:10
Перевод: Профессиональный (дублированный)
Cубтитры: русские, английские
Оригинальная аудиодорожка: английский
Режиссер: Лассе Халльстрём
В ролях: Кевин Спейси, Джулианна Мур, Джуди Денч, Кейт Бланшетт, Пит Постлтуэйт, Скотт Гленн, Риз Айфэнс, Гордон Пинсент, Джейсон Бер, Ларри Пайн
Описание: Куойл, записной неудачник, живет в Нью-Йорке и работает в типографии на самой скучной должности – следит за уровнем чернил в печатной машине. Лишь однажды фортуна улыбается Куойлу – на бензоколонке к нему в машину подсаживается Петал, в которую он влюбляется без памяти. Они женятся, у них рождается дочь, и Куойл, кажется, находит свое тихое и неприметное место в жизни, не замечая ни многочисленных любовников жены, ни еще более многочисленных недостатков ее характера. Но судьба преподносит ему новые сюрпризы. Не в силах вынести обрушившихся на него подряд смертей жены и родителей, Куойл со своей теткой Агнис отправляется на остров Ньюфаундленд, где сохранился дом его предков. Там он случайно устраивается работать журналистом в местную газету, там он пытается понять этих суровых людей, полжизни проводящих в море, там он узнает историю своей семьи и там он встречает Агнис, олицетворяющую собой весь этот северный край...

Исходник: The Shipping News 2001 1080p ITA Blu-ray AVC DTS-HD MA 5.1-CtrlHD @ HDBits
Тип релиза: BDRemux 1080p | sample
Контейнер: MKV
Видео: MPEG-4 AVC Video / 34997 kbps / 1080p / 24 fps / 16:9 / High Profile 4.1
Аудио #1: Russian AC3 6ch 48kHz 448Kbps | Dub
Аудио #2: DTS-HD MA / 5.1 / 48 kHz / 3732 kbps / 24-bit (DTS Core: 5.1 / 48 kHz / 768 kbps / 24-bit) | Original
Формат субтитров: softsub (SRT)
Главы: есть

MediaInfo

General
Complete name : D:\...\The.Shipping.News.2001.1080p.Remux.AVC.Rus.Eng.mkv
Format : Matroska
Format version : Version 2
File size : 30.4 GiB
Duration : 1h 51mn
Overall bit rate mode : Variable
Overall bit rate : 39.1 Mbps
Movie name : The.Shipping.News.2001.1080p.Remux.AVC.Rus.Eng
Encoded date : UTC 2014-01-29 06:12:00
Writing application : mkvmerge v6.5.0 ('Isn't she lovely') built on Oct 20 2013 12:50:05
Writing library : libebml v1.3.0 + libmatroska v1.4.1
Video
ID : 1
Format : AVC
Format/Info : Advanced Video Codec
Format profile : High@L4.1
Format settings, CABAC : Yes
Format settings, ReFrames : 4 frames
Format settings, GOP : M=3, N=12
Codec ID : V_MPEG4/ISO/AVC
Duration : 1h 51mn
Bit rate mode : Variable
Bit rate : 37.1 Mbps
Maximum bit rate : 38.0 Mbps
Width : 1 920 pixels
Height : 1 080 pixels
Display aspect ratio : 16:9
Frame rate mode : Constant
Frame rate : 24.000 fps
Color space : YUV
Chroma subsampling : 4:2:0
Bit depth : 8 bits
Scan type : Progressive
Bits/(Pixel*Frame) : 0.746
Stream size : 28.8 GiB (95%)
Title : The Shipping News (2001)
Language : English
Default : Yes
Forced : No
Color primaries : BT.709
Transfer characteristics : BT.709
Matrix coefficients : BT.709
Audio #1
ID : 2
Format : AC-3
Format/Info : Audio Coding 3
Mode extension : CM (complete main)
Format settings, Endianness : Big
Codec ID : A_AC3
Duration : 1h 51mn
Bit rate mode : Constant
Bit rate : 448 Kbps
Channel(s) : 6 channels
Channel positions : Front: L C R, Side: L R, LFE
Sampling rate : 48.0 KHz
Bit depth : 16 bits
Compression mode : Lossy
Stream size : 356 MiB (1%)
Title : Dub
Language : Russian
Default : Yes
Forced : No
Audio #2
ID : 3
Format : DTS
Format/Info : Digital Theater Systems
Format profile : MA / Core
Codec ID : A_DTS
Duration : 1h 51mn
Bit rate mode : Variable
Bit rate : 806 Kbps / 755 Kbps
Channel(s) : 6 channels
Channel positions : Front: L C R, Side: L R, LFE
Sampling rate : 48.0 KHz
Bit depth : 24 bits
Compression mode : Lossless / Lossy
Title : Original
Language : English
Default : No
Forced : No
Text #1
ID : 4
Format : UTF-8
Codec ID : S_TEXT/UTF8
Codec ID/Info : UTF-8 Plain Text
Language : Russian
Default : No
Forced : No
Text #2
ID : 5
Format : UTF-8
Codec ID : S_TEXT/UTF8
Codec ID/Info : UTF-8 Plain Text
Language : English
Default : No
Forced : No
Menu
00:00:00.000 : en:00:00:00.000
00:08:07.875 : en:00:08:07.875
00:16:26.375 : en:00:16:26.375
00:23:57.083 : en:00:23:57.083
00:37:59.958 : en:00:37:59.958
00:45:39.458 : en:00:45:39.458
00:55:28.500 : en:00:55:28.500
01:05:06.500 : en:01:05:06.500
01:11:40.000 : en:01:11:40.000
01:21:54.542 : en:01:21:54.542
01:30:41.625 : en:01:30:41.625
01:42:35.000 : en:01:42:35.000

Скриншоты


Скачать

Скачать торрент!

Как скачивать? · Что такое торрент? · Рейтинг и ограничения

Сайт не распространяет и не хранит электронные версии произведений, а лишь предоставляет доступ к создаваемому пользователями каталогу ссылок на торрент-файлы, которые содержат только списки хеш-сумм

[Профиль] [ЛС]
Показать сообщения:    
Ответить на тему

Текущее время: Сегодня 06:02

Часовой пояс: GMT + 4



Вы не можете начинать темы
Вы не можете отвечать на сообщения
Вы не можете редактировать свои сообщения
Вы не можете удалять свои сообщения
Вы не можете голосовать в опросах
Вы не можете прикреплять файлы к сообщениям
Вы не можете скачивать файлы