Богдан Хмельницкий (Игорь Савченко) [1941, исторический, DVDRip]

Ответить на тему
 
Автор Сообщение

user ®

Стаж: 7 лет 7 месяцев

Сообщений: 20008

Пост Пост: #1 от 29-Янв-2014 20:45

[Цитировать]

Богдан Хмельницкий
Жанр: исторический
Год выпуска: 1941
Продолжительность: 01:48:12
Режиссёр: Игорь Савченко
В ролях: Николай Мордвинов, Галина (Гарэн) Жуковская, Никита Ильченко, Борис Безгин, Андрей Иванченко, Виталий Полицеймако, Михаил Жаров, Антон Дунайский, Борис Андреев, Ростислав Ивицкий, Дмитрий Капка, Палладий Белоконь, Павел Пасека, Александр Хвыля, Михаил Высоцкий, Эмма Цесарская, Дмитрий Милютенко, Ганс Клеринг, Василий Зайчиков, Касим Мухутдинов, Генрих Грайф, Александр Давидсон, Самуил Дитлович, С. Самульчик, Б. Свешников, Василий Дашенко, Михаил Белоусов, Павел Киянский, Эмилия Мильтон, Степан Жаворонок
Описание: 1648 год. Украина под гнетом Речи Посполитой. Шляхта бесчинствует, сжигая станицу за станицей. Гетман войска запорожского Богдан Хмельницкий собирает армию для битвы с захватчиками.
Доп. информация: Сравнение [url=http://***/forum/viewtopic.php?t=4496720]http://***/forum/viewtopic.php?t=4496720[/url] http://screenshotcomparison.com/comparison/59968
Сэмпл: http://www.sendspace.com/file/aaskuq
Качество видео: DVDRip
Формат видео: AVI
Видео: 688х512 (1.34:1), 25 fps, 1801 Kbps
Аудио: MP3, 48 kHz, 2 ch, 128 Kbps

MediaInfo

I:\Богдан Хмельницкий\Богдан Хмельницкий (1941).avi
General
Complete name : I:\Богдан Хмельницкий\Богдан Хмельницкий (1941).avi
Format : AVI
Format/Info : Audio Video Interleave
File size : 1.47 GiB
Duration : 1h 48mn
Overall bit rate : 1 942 Kbps
Video #0
ID : 0
Format : MPEG-4 Visual
Format profile : Advanced Simple@L4
Format settings, BVOP : 2
Format settings, QPel : No
Format settings, GMC : No warppoints
Format settings, Matrix : Default (MPEG)
Codec ID : DIVX
Codec ID/Info : Project Mayo
Codec ID/Hint : DivX 4
Duration : 1h 48mn
Bit rate : 1 801 Kbps
Width : 688 pixels
Height : 512 pixels
Display aspect ratio : 4:3
Frame rate : 25.000 fps
Color space : YUV
Chroma subsampling : 4:2:0
Bit depth : 8 bits
Scan type : Progressive
Compression mode : Lossy
Bits/(Pixel*Frame) : 0.205
Stream size : 1.36 GiB (93%)
Writing library : XviD 64
Audio #1
ID : 1
Format : MPEG Audio
Format version : Version 1
Format profile : Layer 3
Codec ID : 55
Codec ID/Hint : MP3
Duration : 1h 4mn
Source duration : 1h 48mn
Bit rate mode : Constant
Bit rate : 128 Kbps
Channel count : 2 channels
Sampling rate : 48.0 KHz
Compression mode : Lossy
Stream size : 99.1 MiB (7%)
Alignment : Aligned on interleaves
Interleave, duration : 24 ms (0.60 video frame)

Скриншот c названием фильма

Скриншоты

Скачать

Скачать торрент!

Как скачивать? · Что такое торрент? · Рейтинг и ограничения

Сайт не распространяет и не хранит электронные версии произведений, а лишь предоставляет доступ к создаваемому пользователями каталогу ссылок на торрент-файлы, которые содержат только списки хеш-сумм

[Профиль] [ЛС]
Показать сообщения:    
Ответить на тему

Текущее время: Сегодня 08:06

Часовой пояс: GMT + 4



Вы не можете начинать темы
Вы не можете отвечать на сообщения
Вы не можете редактировать свои сообщения
Вы не можете удалять свои сообщения
Вы не можете голосовать в опросах
Вы не можете прикреплять файлы к сообщениям
Вы не можете скачивать файлы