Читающий (Судьбу) с лица / The Face Reader / Physiognomy (Хан Чжэ Рим / Han Jae-Rim) [2013, Южная Корея, драма, исторический, HDRip-AVC] VO (@PD)

Ответить на тему
 
Автор Сообщение

user ®

Стаж: 11 лет

Сообщений: 15151

Пост Пост: #1 от 29-Янв-2014 17:35

[Цитировать]

Читающий (Судьбу) с лица / The Face Reader / Gwansang
Страна: Южная Корея
Жанр: драма, исторический
Год выпуска: 2013
Продолжительность: 02:19:52
Перевод: Одноголосый закадровый @PD
Cубтитры: нет
Режиссер: Han Jae-Rim / Хан Чжэ Рим
В ролях: Сон Кан Хо, Ли Чон Чжэ, Ким Хэ Су, Пэк Юн Шик
Описание: Нэ Кёну, родившемуся в знатной семье, которая в свое время попала в опалу, удается, благодаря удачному стечению обстоятельств, попасть в милость вице-премьеру Киму Чжон-со. Оказавшись в круговороте дворцовых интриг, НэКён попадает, как между молотом и наковальней, между двумя враждующими силами - генералом, Ким Чжон-со и принцем Су-яном, жаждущим власти и короны.
Он оказывается посреди схватки между свирепым "волком" и величественным"тигром" эпохи Чосон.
Фильм основан на реальных исторических событиях.
Сэмпл: http://multi-up.com/944940
Качество видео: HDRip-AVC
Формат видео: MKV
Видео: MPEG4/ISO/AVC, 720х304 , 23.976 fps, High@L4.1, 1256 Kbps,
Аудио: AC-3, 192 Kbps, 2 channels, 48.0 KHz

MediaInfo

Format : Matroska
Format version : Version 4 / Version 2
File size : 1.41 GiB
Duration : 2h 19mn
Overall bit rate : 1 449 Kbps
Encoded date : UTC 2014-01-27 21:31:46
Writing application : mkvmerge v6.5.0 ('Isn't she lovely') built on Oct 20 2013 12:50:05
Writing library : libebml v1.3.0 + libmatroska v1.4.1
Video
ID : 1
Format : AVC
Format/Info : Advanced Video Codec
Format profile : High@L4.1
Format settings, CABAC : Yes
Format settings, ReFrames : 5 frames
Codec ID : V_MPEG4/ISO/AVC
Duration : 2h 19mn
Bit rate : 1 256 Kbps
Width : 720 pixels
Height : 304 pixels
Display aspect ratio : 2.35:1
Frame rate mode : Constant
Frame rate : 23.976 fps
Color space : YUV
Chroma subsampling : 4:2:0
Bit depth : 8 bits
Scan type : Progressive
Bits/(Pixel*Frame) : 0.239
Stream size : 1.20 GiB (85%)
Writing library : x264 core 138 r2358 9e941d1
Encoding settings : cabac=1 / ref=5 / deblock=1:-3:-3 / analyse=0x3:0x113 / me=umh / subme=9 / psy=1 / psy_rd=1.00:0.20 / mixed_ref=1 / me_range=24 / chroma_me=1 / trellis=2 / 8x8dct=1 / cqm=0 / deadzone=21,11 / fast_pskip=1 / chroma_qp_offset=-6 / threads=3 / lookahead_threads=1 / sliced_threads=0 / nr=0 / decimate=1 / interlaced=0 / bluray_compat=0 / constrained_intra=0 / bframes=3 / b_pyramid=2 / b_adapt=2 / b_bias=0 / direct=1 / weightb=1 / open_gop=0 / weightp=2 / keyint=240 / keyint_min=23 / scenecut=40 / intra_refresh=0 / rc=2pass / mbtree=0 / bitrate=1256 / ratetol=1.0 / qcomp=0.60 / qpmin=0 / qpmax=69 / qpstep=4 / cplxblur=20.0 / qblur=0.5 / ip_ratio=1.40 / pb_ratio=1.30 / aq=1:1.00
Default : Yes
Forced : No
Audio
ID : 2
Format : AC-3
Format/Info : Audio Coding 3
Mode extension : CM (complete main)
Format settings, Endianness : Big
Codec ID : A_AC3
Duration : 2h 19mn
Bit rate mode : Constant
Bit rate : 192 Kbps
Channel(s) : 2 channels
Channel positions : Front: L R
Sampling rate : 48.0 KHz
Bit depth : 16 bits
Compression mode : Lossy
Stream size : 192 MiB (13%)
Title : Авторский перевод @PD
Language : Russian
Default : Yes
Forced : No

Скриншоты

Скачать

Скачать торрент! Читающий (Судьбу) с лица / The Face Reader / Physiognomy (Хан Чжэ Рим / Han Jae-Rim) [2013, Южная Корея, драма, исторический, HDRip-AVC] VO (@PD)

Как скачивать? · Что такое торрент? · Рейтинг и ограничения

Сайт не распространяет и не хранит электронные версии произведений, а лишь предоставляет доступ к создаваемому пользователями каталогу ссылок на торрент-файлы, которые содержат только списки хеш-сумм

[Профиль] [ЛС]
Показать сообщения:    
Ответить на тему

Текущее время: Сегодня 17:58

Часовой пояс: GMT + 4



Вы не можете начинать темы
Вы не можете отвечать на сообщения
Вы не можете редактировать свои сообщения
Вы не можете удалять свои сообщения
Вы не можете голосовать в опросах
Вы не можете прикреплять файлы к сообщениям
Вы не можете скачивать файлы