Остинленд / Austenland (Джеруша Хесс / Jerusha Hess) [2013, Великобритания, США, мелодрама, комедия, BDRip 1080p] MVO (R5) + Sub Rus / Eng + Original Eng

Ответить на тему
 
Автор Сообщение

user ®

Стаж: 7 лет 7 месяцев

Сообщений: 20008

Пост Пост: #1 от 29-Янв-2014 05:20

[Цитировать]

Остинленд / Austenland
Страна: Великобритания, США
Студия: Fickle Fish Films, Moxie Pictures
Жанр: мелодрама, комедия
Год выпуска: 2013
Продолжительность: 01:36:55
Перевод: Профессиональный (многоголосый закадровый) Лицензия, R5
Cубтитры: Русские, английские
Оригинальная аудиодорожка: английский
Доп. информация: многоголоска HDRip
Режиссер: Джеруша Хесс / Jerusha Hess
В ролях: Кери Рассел, Джей Джей Филд, Дженнифер Кулидж, Брэт МакКензи, Джорджия Кинг, Джеймс Кэллис, Джейн Сеймур, Рики Уиттл, Клер Эштон, Трэйси Чаттерли
Описание: В центре сюжета — одинокая женщина около тридцати лет, испытывающая трудности во всех возможных реальных любовных переживаниях своей жизни из-за одержимой влюбленности в мистера Дарси — вымышленного героя классического романа «Гордость и предубеждение» Джейн Остин. Она тратит все свои сбережения на поездку в Англию и встречает там мужчину из своих фантазий.
Тип релиза: BDRip 1080p [WiKi]
Контейнер: MKV
Видео: x.264, NTSC 23.976, 1920x800, 13300 кбит/с
Аудио: Русский AC3, 6ch L, C, R, Ls, Rs +LFE, 384 кбит/с
Аудио 2: Английский DTS, 6 ch, 1509 Кбит/с
Формат субтитров:prerendered (Blu-ray/PGS/SUP)

MediaInfo

General
Unique ID : 254040947259788944878216804236777835044 (0xBF1E81B9E59F9DE6A1B0522811E94A24)
Complete name : F:\BD torrent\DVDRIPS\Austenland.2013.1080p.BluRayRus.Eng.ac3.dts.mkv
Format : Matroska
Format version : Version 2
File size : 10.3 GiB
Duration : 1h 36mn
Overall bit rate : 15.2 Mbps
Encoded date : UTC 2014-01-28 21:12:11
Writing application : mkvmerge v4.9.1 ('Ich will') built on Jul 11 2011 23:53:15
Writing library : libebml v1.2.1 + libmatroska v1.1.1
Video
ID : 1
Format : AVC
Format/Info : Advanced Video Codec
Format profile : High@L4.1
Format settings, CABAC : Yes
Format settings, ReFrames : 5 frames
Muxing mode : Header stripping
Codec ID : V_MPEG4/ISO/AVC
Duration : 1h 36mn
Bit rate : 13.3 Mbps
Width : 1 920 pixels
Height : 800 pixels
Display aspect ratio : 2.40:1
Frame rate mode : Constant
Frame rate : 23.976 fps
Color space : YUV
Chroma subsampling : 4:2:0
Bit depth : 8 bits
Scan type : Progressive
Bits/(Pixel*Frame) : 0.360
Stream size : 8.78 GiB (86%)
Writing library : x264 core 130 r2273 b3065e6
Encoding settings : cabac=1 / ref=5 / deblock=1:-3:-3 / analyse=0x3:0x133 / me=umh / subme=11 / psy=1 / psy_rd=1.05:0.05 / mixed_ref=1 / me_range=64 / chroma_me=1 / trellis=2 / 8x8dct=1 / cqm=0 / deadzone=21,11 / fast_pskip=0 / chroma_qp_offset=-3 / threads=12 / lookahead_threads=2 / sliced_threads=0 / nr=0 / decimate=1 / interlaced=0 / bluray_compat=0 / constrained_intra=0 / bframes=8 / b_pyramid=2 / b_adapt=2 / b_bias=0 / direct=3 / weightb=1 / open_gop=0 / weightp=2 / keyint=250 / keyint_min=23 / scenecut=40 / intra_refresh=0 / rc_lookahead=60 / rc=2pass / mbtree=1 / bitrate=13260 / ratetol=1.0 / qcomp=0.60 / qpmin=0 / qpmax=69 / qpstep=4 / cplxblur=20.0 / qblur=0.5 / vbv_maxrate=40000 / vbv_bufsize=30000 / nal_hrd=none / ip_ratio=1.40 / aq=1:0.70
Language : English
Default : Yes
Forced : No
Audio #1
ID : 2
Format : AC-3
Format/Info : Audio Coding 3
Mode extension : CM (complete main)
Format settings, Endianness : Big
Muxing mode : Header stripping
Codec ID : A_AC3
Duration : 1h 36mn
Bit rate mode : Constant
Bit rate : 384 Kbps
Channel(s) : 6 channels
Channel positions : Front: L C R, Side: L R, LFE
Sampling rate : 48.0 KHz
Bit depth : 16 bits
Compression mode : Lossy
Stream size : 266 MiB (3%)
Title : Лицензия, R5
Language : Russian
Default : Yes
Forced : No
Audio #2
ID : 3
Format : DTS
Format/Info : Digital Theater Systems
Mode : 16
Format settings, Endianness : Big
Muxing mode : Header stripping
Codec ID : A_DTS
Duration : 1h 36mn
Bit rate mode : Constant
Bit rate : 1 509 Kbps
Channel(s) : 6 channels
Channel positions : Front: L C R, Side: L R, LFE
Sampling rate : 48.0 KHz
Bit depth : 24 bits
Compression mode : Lossy
Stream size : 1.02 GiB (10%)
Language : English
Default : No
Forced : No
Text #1
ID : 4
Format : PGS
Muxing mode : zlib
Codec ID : S_HDMV/PGS
Codec ID/Info : The same subtitle format used on BDs/HD-DVDs
Language : English
Default : No
Forced : No
Text #2
ID : 5
Format : UTF-8
Codec ID : S_TEXT/UTF8
Codec ID/Info : UTF-8 Plain Text
Language : Russian
Default : Yes
Forced : No

Скриншот c названием фильма

Скриншоты

скриншоты с субтитрами: Русский / Английский


Скачать

Скачать торрент!

Как скачивать? · Что такое торрент? · Рейтинг и ограничения

Сайт не распространяет и не хранит электронные версии произведений, а лишь предоставляет доступ к создаваемому пользователями каталогу ссылок на торрент-файлы, которые содержат только списки хеш-сумм

[Профиль] [ЛС]
Показать сообщения:    
Ответить на тему

Текущее время: Сегодня 04:05

Часовой пояс: GMT + 4



Вы не можете начинать темы
Вы не можете отвечать на сообщения
Вы не можете редактировать свои сообщения
Вы не можете удалять свои сообщения
Вы не можете голосовать в опросах
Вы не можете прикреплять файлы к сообщениям
Вы не можете скачивать файлы