Отцовство / Отчаянный папа / Father Hood (Даррелл Джеймс Рудт / Darrell James Roodt) [1993, США, Криминальная комедия, BDRip 720p] AVO (Антон Пронин) + 2х MVO (Первый Канал, Видеосервис) + Sub Eng + Original Eng

Ответить на тему
 
Автор Сообщение

user ®

Стаж: 7 лет 7 месяцев

Сообщений: 20008

Пост Пост: #1 от 27-Янв-2014 21:55

[Цитировать]

Отцовство / Отчаянный Папа / Father Hood
Страна: США
Студия: Hollywood Pictures
Жанр: Криминальная комедия
Год выпуска: 1993
Продолжительность: 01:35:03
Перевод 1: Авторский (одноголосый закадровый) Антон Пронин (микс VHS_rip и оригинала)
Перевод 2: Профессиональный (многоголосый закадровый) Первый Канал (IPTV)
Перевод 3: Профессиональный (многоголосый закадровый) Видеосервис (с лиц. VHS)
Cубтитры: английские
Оригинальная аудиодорожка: английский
Режиссер: Даррелл Джеймс Рудт /Darrell James Roodt/
В ролях: Патрик Суэйзи /Patrick Swayze/, Холли Берри /Halle Berry/, Сабрина Ллойд /Sabrina Lloyd/, Брайан Бонсолл /Brian Bonsall/, Майкл Айронсайд /Michael Ironside/, Дайэн Лэдд /Diane Ladd/, Роберт Гантон /Robert Gunton/, Майкл Ди Лэйно, Эдриэнн Барбо /Adrienne Barbeau/
Описание: Джек Чарлз (Суэйзи) - профессиональный преступник, специализирующийся на ограблении наркодилеров. Ему предстоит серьезное дело.
Из приюта, больше похожего на колонию для малолетних преступников, сбегает и заявляется к нему его дочь Келли (Сабрина Ллойд). Она упрашивает отца освободить и младшего 8-летнего брата Эдди, которого начальство приюта, нарушая закон, держит в наручниках. Детей невозможно забрать официально, так как за каждого государство платит деньги, которые владельцы приюта могут присваивать себе.
Джек под дулом револьвера забирает сына, остановив тюремный автобус. Преследуемые полицией отец, дочь и сын направляются через всю страну в Луизиану. На пятки им наступает полиция.
Помочь беглецам может только журналистка Кэтрин Мерсер (Берри), занимающаяся расследованием избиений, издевательств над детьми и коррупции в приютах.
Доп. информация: Видео скачано с буржуйского треккера.
Меню: нет
Сэмпл: http://multi-up.com/944337
Тип релиза: BDRip 720p
Контейнер: MKV
Видео: h.264 1280x696 5073 Kbps 23.976fps
Аудио 1: RUS AC3 48KHz 2ch 192 kb/s - Пронин
Аудио 2: RUS AC3 48KHz 2ch 192 kb/s - Первый канал
Аудио 3: RUS AC3 48KHz 2ch 192 kb/s - Видеосервис
Аудио 4: ENG DTS 48KHz 2ch 1536 kb/s - Оригинал (английский)
Формат субтитров: softsub (SRT)

MediaInfo

General
Unique ID : 232075308686000601741234363068989091939 (0xAE9814216E86F64197BE1EFC0DA4B063)
Complete name : F:\!0!0!0\Father.Hood.1993.720p.BluRay.x264\father.hood.1993.720p.bluray.x264.mkv
Format : Matroska
Format version : Version 4 / Version 2
File size : 4.75 GiB
Duration : 1h 35mn
Overall bit rate : 7 158 Kbps
Encoded date : UTC 2014-01-26 08:33:17
Writing application : mkvmerge v6.2.0 ('Promised Land') built on Apr 28 2013 12:22:01
Writing library : libebml v1.3.0 + libmatroska v1.4.0
Video
ID : 1
Format : AVC
Format/Info : Advanced Video Codec
Format profile : High@L4.1
Format settings, CABAC : Yes
Format settings, ReFrames : 5 frames
Codec ID : V_MPEG4/ISO/AVC
Duration : 1h 35mn
Bit rate : 5 073 Kbps
Width : 1 280 pixels
Height : 696 pixels
Display aspect ratio : 1.85:1
Frame rate mode : Constant
Frame rate : 23.976 fps
Color space : YUV
Chroma subsampling : 4:2:0
Bit depth : 8 bits
Scan type : Progressive
Bits/(Pixel*Frame) : 0.238
Stream size : 3.27 GiB (69%)
Writing library : x264 core 128 r2216 198a7ea
Encoding settings : cabac=1 / ref=5 / deblock=1:0:0 / analyse=0x3:0x113 / me=umh / subme=8 / psy=1 / psy_rd=1.00:0.00 / mixed_ref=1 / me_range=16 / chroma_me=1 / trellis=1 / 8x8dct=1 / cqm=0 / deadzone=21,11 / fast_pskip=1 / chroma_qp_offset=-2 / threads=12 / lookahead_threads=2 / sliced_threads=0 / nr=0 / decimate=1 / interlaced=0 / bluray_compat=0 / constrained_intra=0 / bframes=3 / b_pyramid=2 / b_adapt=2 / b_bias=0 / direct=3 / weightb=1 / open_gop=0 / weightp=2 / keyint=240 / keyint_min=24 / scenecut=40 / intra_refresh=0 / rc_lookahead=50 / rc=2pass / mbtree=1 / bitrate=5073 / ratetol=1.0 / qcomp=0.60 / qpmin=0 / qpmax=69 / qpstep=4 / cplxblur=20.0 / qblur=0.5 / ip_ratio=1.40 / aq=1:1.00
Language : English
Default : Yes
Forced : No
Audio #1
ID : 2
Format : AC-3
Format/Info : Audio Coding 3
Mode extension : CM (complete main)
Format settings, Endianness : Big
Codec ID : A_AC3
Duration : 1h 35mn
Bit rate mode : Constant
Bit rate : 192 Kbps
Channel count : 2 channels
Channel positions : Front: L R
Sampling rate : 48.0 KHz
Bit depth : 16 bits
Compression mode : Lossy
Delay relative to video : 18ms
Stream size : 131 MiB (3%)
Title : Антон Пронин (микс VHSRip и оригинала)
Language : Russian
Default : Yes
Forced : No
Audio #2
ID : 3
Format : AC-3
Format/Info : Audio Coding 3
Mode extension : CM (complete main)
Format settings, Endianness : Big
Codec ID : A_AC3
Duration : 1h 35mn
Bit rate mode : Constant
Bit rate : 192 Kbps
Channel count : 2 channels
Channel positions : Front: L R
Sampling rate : 48.0 KHz
Bit depth : 16 bits
Compression mode : Lossy
Stream size : 131 MiB (3%)
Title : Первый Канал (IPTV)
Language : Russian
Default : No
Forced : No
Audio #3
ID : 4
Format : AC-3
Format/Info : Audio Coding 3
Mode extension : CM (complete main)
Format settings, Endianness : Big
Codec ID : A_AC3
Duration : 1h 35mn
Bit rate mode : Constant
Bit rate : 192 Kbps
Channel count : 2 channels
Channel positions : Front: L R
Sampling rate : 48.0 KHz
Bit depth : 16 bits
Compression mode : Lossy
Stream size : 131 MiB (3%)
Title : Видеосервис (с лиц. VHS)
Language : Russian
Default : No
Forced : No
Audio #4
ID : 5
Format : DTS
Format/Info : Digital Theater Systems
Mode : 16
Format settings, Endianness : Big
Codec ID : A_DTS
Duration : 1h 35mn
Bit rate mode : Constant
Bit rate : 1 509 Kbps
Channel count : 2 channels
Channel positions : Front: L R
Sampling rate : 48.0 KHz
Bit depth : 24 bits
Compression mode : Lossy
Stream size : 1.00 GiB (21%)
Language : English
Default : No
Forced : No
Text
ID : 6
Format : UTF-8
Codec ID : S_TEXT/UTF8
Codec ID/Info : UTF-8 Plain Text
Language : English
Default : No
Forced : No
Menu
00:00:00.000 : en:00:00:00.000
00:05:25.325 : en:00:05:25.325
00:12:45.223 : en:00:12:45.223
00:19:19.992 : en:00:19:19.992
00:28:55.692 : en:00:28:55.692
00:36:52.710 : en:00:36:52.710
00:46:27.326 : en:00:46:27.326
00:58:35.178 : en:00:58:35.178
01:03:43.111 : en:01:03:43.111
01:12:46.028 : en:01:12:46.028
01:24:06.083 : en:01:24:06.083
01:31:55.009 : en:01:31:55.009

Скриншоты



Скачать

Скачать торрент!

Как скачивать? · Что такое торрент? · Рейтинг и ограничения

Сайт не распространяет и не хранит электронные версии произведений, а лишь предоставляет доступ к создаваемому пользователями каталогу ссылок на торрент-файлы, которые содержат только списки хеш-сумм

[Профиль] [ЛС]
Показать сообщения:    
Ответить на тему

Текущее время: Сегодня 07:05

Часовой пояс: GMT + 4



Вы не можете начинать темы
Вы не можете отвечать на сообщения
Вы не можете редактировать свои сообщения
Вы не можете удалять свои сообщения
Вы не можете голосовать в опросах
Вы не можете прикреплять файлы к сообщениям
Вы не можете скачивать файлы