Любовница / Mistress (Барри Праймус / Barry Primus) [1992, США, Драма, комедия, WEB-DL 720p] AVO (Михалёв)+ DVO + Sub Rus + Original Eng

Ответить на тему
 
Автор Сообщение

user ®

Стаж: 7 лет 7 месяцев

Сообщений: 20008

Пост Пост: #1 от 27-Янв-2014 21:55

[Цитировать]

Любовница / Mistress
Страна: США
Студия: Mistress Productions & Tribeca Productions
Жанр: Драма, комедия,
Год выпуска: 1992
Продолжительность: 01:49:34
Перевод 1: Авторский (одноголосый закадровый) АЛЕКСЕЙ МИХАЛЁВ
Перевод 2: Профессиональный (двухголосый закадровый)
Cубтитры: русские
Оригинальная аудиодорожка: английский
Режиссер: Барри Праймус / Barry Primus
В ролях: Роберт Вул /Robert Wuhl/, Мартин Ландау /Martin Landau/, Роберт Де Ниро /Robert De Niro/, Дэнни Айелло /Danny Aiello/, Илай Уоллак /Eli Wallach/, Лори Меткаф /Laurie Metcalf/, Шерил Ли Ралф /Sheryl Lee Ralph/, Кристофер Уокен /Christopher Walken/, Эрнест Боргнайн /Ernest Borgnine/, Джин Смарт /Jean Smart/, Тьюзди Найт /Tuesday Knight/
Описание: В этой комедии с элементами драмы рассказывается об исписавшемся сценаристе (Вул), который получает шанс осуществить свою мечту, благодаря бывшему (разорившемуся) продюсеру (прекрасная роль Ландау). Сюжет заключается в мошенническом присвоении денег и подставке любовницы того, у кого эти деньги похищены. Дело в том, что любовница "жутко" хочет сыграть главную роль в каком-нибудь фильме, а тот, у кого деньги есть, к ней не равнодушен. Очень хорошая картина - рекомендую. (Иванов М.)
--------------------------------------------------
Оператор: Свен Керстен
Сценарист: Дж. Ф. Лоутон /J. F. Lawton/, Барри Праймус /Barry Primus/
Продюсер: Мейр Тепер /Meir Teper/, Роберт Де Ниро /Robert De Niro/
Монтажер: Стивен Уайсберг /Steven Weisberg/
Композитор: Голт МакДермот /Galt MacDermot/
Художник: Фил Питерс /Phil Peters/
Костюмы: Сьюзэн Найнингер
Сюжет: Барри Праймус /Barry Primus/
--------------------------------------------------
КИНОПОИСК. RU
РЕЙТИНГ 5,402 оценки: 184
5,4/10 from 1 440 users
--------------------------------------------------
Доп. информация: Видеоряд >>>Mistress.1992.720p.WEB-DL.H264-brento [PublicHD]
--------------------------------------------------
СЭМПЛ
--------------------------------------------------
Примечание: Скорость маленькая 50 kb/c, но раздаю круглосуточно.
--------------------------------------------------
Тип релиза: WEB-DL 720p
Контейнер: MKV
Видео: 1280 x720; 23.976 fps; ~ 3 905 Kbps; 0.177 Bits/Pixel
Аудио 1: Russian - 48 kHz, AC3 Dolby Digital, 2/0 (L,R) 2ch, ~192 kbps - Алексей Михалёв
Аудио 2: Russian - 48 kHz, AC3 Dolby Digital, 2/0 (L,R) 2ch, ~192 kbps - DVO
Аудио 3: English - 48 kHz, AC3 Dolby Digital, 2/0 (L,R) 2ch, ~192 kbps - Original
Формат субтитров: Russian (*UTF-8)

MediaInfo

General
Complete name : F:\EXCLUZIVE=19\ЛЮБОВНИЦА=MISTRESS.1992\Mistress.1992\Mistress 1992. 720p WEB-DL.mkv
Format : Matroska
File size : 3.50 GiB
Duration : 1h 49mn
Overall bit rate : 4 572 Kbps
Encoded date : UTC 2014-01-20 02:38:00
Writing application : mkvmerge v3.3.0 ('Language') built on Mar 24 2010 14:59:24
Writing library : libebml v0.8.0 + libmatroska v0.9.0
Video
ID : 1
Format : AVC
Format/Info : Advanced Video Codec
Format profile : High@L3.1
Format settings, CABAC : No
Format settings, ReFrames : 2 frames
Muxing mode : Container profile=Unknown@3.1
Codec ID : V_MPEG4/ISO/AVC
Duration : 1h 49mn
Bit rate : 3 905 Kbps
Width : 1 280 pixels
Height : 720 pixels
Display aspect ratio : 16:9
Frame rate : 23.976 fps
Color space : YUV
Chroma subsampling : 4:2:0
Bit depth : 8 bits
Scan type : Progressive
Bits/(Pixel*Frame) : 0.177
Stream size : 2.99 GiB (85%)
Title : Mistress 1992.
Language : English
Color primaries : BT.709-5, BT.1361, IEC 61966-2-4, SMPTE RP177
Transfer characteristics : BT.709-5, BT.1361
Matrix coefficients : BT.709-5, BT.1361, IEC 61966-2-4 709, SMPTE RP177
Audio #1
ID : 2
Format : AC-3
Format/Info : Audio Coding 3
Mode extension : CM (complete main)
Codec ID : A_AC3
Duration : 1h 49mn
Bit rate mode : Constant
Bit rate : 192 Kbps
Channel(s) : 2 channels
Channel positions : Front: L R
Sampling rate : 48.0 KHz
Stream size : 150 MiB (4%)
Title : AVO Михалёв @ AC3 2 ch. 192 kbps
Language : Russian
Audio #2
ID : 3
Format : AC-3
Format/Info : Audio Coding 3
Mode extension : CM (complete main)
Codec ID : A_AC3
Duration : 1h 49mn
Bit rate mode : Constant
Bit rate : 192 Kbps
Channel(s) : 2 channels
Channel positions : Front: L R
Sampling rate : 48.0 KHz
Stream size : 150 MiB (4%)
Title : DVO @ AC3 2 ch. 192 kbps
Language : Russian
Audio #3
ID : 4
Format : AC-3
Format/Info : Audio Coding 3
Mode extension : CM (complete main)
Codec ID : A_AC3
Duration : 1h 49mn
Bit rate mode : Constant
Bit rate : 192 Kbps
Channel(s) : 2 channels
Channel positions : Front: L R
Sampling rate : 48.0 KHz
Stream size : 150 MiB (4%)
Title : Original @ AC3 2 ch. 192 kbps
Language : English
Text
ID : 5
Format : UTF-8
Codec ID : S_TEXT/UTF8
Codec ID/Info : UTF-8 Plain Text
Title : (* UTF-8)
Language : Russian
Menu
00:00:00.000 : en:Chapter 1
00:05:47.000 : en:Chapter 2
00:11:52.000 : en:Chapter 3
00:18:12.000 : en:Chapter 4
00:23:47.000 : en:Chapter 5
00:31:33.000 : en:Chapter 6
00:36:53.000 : en:Chapter 7
00:42:32.000 : en:Chapter 8
00:48:31.000 : en:Chapter 9
00:55:21.000 : en:Chapter 10
00:59:33.000 : en:Chapter 11
01:07:57.000 : en:Chapter 12
01:16:03.000 : en:Chapter 13
01:20:57.000 : en:Chapter 14
01:26:21.000 : en:Chapter 15
01:31:14.000 : en:Chapter 16
01:36:50.000 : en:Chapter 17
01:42:27.000 : en:Chapter 18

Скриншоты

, ,
, ,
, ,
Скачать

Скачать торрент!

Как скачивать? · Что такое торрент? · Рейтинг и ограничения

Сайт не распространяет и не хранит электронные версии произведений, а лишь предоставляет доступ к создаваемому пользователями каталогу ссылок на торрент-файлы, которые содержат только списки хеш-сумм

[Профиль] [ЛС]
Показать сообщения:    
Ответить на тему

Текущее время: Сегодня 05:10

Часовой пояс: GMT + 4



Вы не можете начинать темы
Вы не можете отвечать на сообщения
Вы не можете редактировать свои сообщения
Вы не можете удалять свои сообщения
Вы не можете голосовать в опросах
Вы не можете прикреплять файлы к сообщениям
Вы не можете скачивать файлы