Очень плохие парни / Big Bad Wolves (Аарон Кешалес / Aharon Keshales, Навот Папушадо / Navot Papushado) [2013, Израиль, Триллер, криминал, WEB-DL 1080p] VO (Andi) + Sub Eng + Original Eng

Ответить на тему
 
Автор Сообщение

user ®

Стаж: 7 лет 7 месяцев

Сообщений: 20008

Пост Пост: #1 от 27-Янв-2014 12:35

[Цитировать]

Очень плохие парни / Big Bad Wolves
Страна: Израиль
Жанр: Триллер, криминал
Год выпуска: 2013
Продолжительность: 01:49:43
Перевод: Одноголосый закадровый Andi
Cубтитры: английские (хардсаб)
Оригинальная аудиодорожка: Hebrew (иврит)
Режиссер: Аарон Кешалес / Aharon Keshales, Навот Папушадо / Navot Papushado
В ролях: Лиор Ашкенази, Ротем Кейнан, Цахи Град, Довале Гликман, Менаш Ной, Двир Бенедек, Каис Насеф, Нати Клюгер, Ами Вайнберг, Гай Адлер
Описание: Многие начинают говорить, после второго сломанного пальца. Это правило использует полицейский, чтоб добыть признания у подозреваемого в жутких убийствах детей, преподователя начальных классов. К нему присоединяется обезумевший от горя отец, одной из погибших девочек. Но когда пытки заходят слишком далеко, полицейский начинает сомневаться, что преподователь является убийцей,но отец погибшей девочки ничего не хочет слышать. А может это отец является маньяком, успел подумать полицейский, прежде чем оказаться связанным рядом с преподователем.
Сэмпл: http://yadi.sk/d/BLsKsrh8GmLio
семпл на youtube
Тип релиза: web-dl 1080p
Контейнер: MKV
Видео: 1912*796, 3659 Кбит/сек, 23,976 кадра/сек
Аудио: DTS, 1510 Кбит/сек, 48,0 КГц, 6Ch-русский
Аудио 2: AC-3, 384 Кбит/сек, 48,0 КГц, 6Ch

MediaInfo

Общее
Уникальный идентификатор : 215987739850516665633384023624253554169 (0xA27DB9BF9A165C8F8782B71364E1BDF9)
Полное имя : L:\BigBadWolves2013.WEB-DL.mkv
Формат : Matroska
Версия формата : Version 2
Размер файла : 4,34 Гбайт
Продолжительность : 1 ч. 49 м.
Общий поток : 5665 Кбит/сек
Дата кодирования : UTC 2014-01-26 14:05:13
Программа кодирования : mkvmerge v5.5.0 ('Healer') built on Apr 6 2012 21:43:24
Библиотека кодирования : libebml v1.2.3 + libmatroska v1.3.0
Видео
Идентификатор : 1
Формат : AVC
Формат/Информация : Advanced Video Codec
Профиль формата : High@L4.0
Параметр CABAC формата : Да
Параметр ReFrames формата : 5 кадров
Идентификатор кодека : V_MPEG4/ISO/AVC
Продолжительность : 1 ч. 49 м.
Битрейт : 3659 Кбит/сек
Ширина : 1912 пикселей
Высота : 796 пикселей
Соотношение сторон : 2,40:1
Режим частоты кадров : Постоянный
Частота кадров : 23,976 кадра/сек
Цветовое пространство : YUV
Субдискретизация насыщенности : 4:2:0
Битовая глубина : 8 бит
Тип развёртки : Прогрессивная
Бит/(Пиксели*Кадры) : 0.100
Размер потока : 2,80 Гбайт (65%)
Заголовок : Video_Track_PublicHD
Язык : English
Default : Да
Forced : Нет
Основные цвета : BT.709
Характеристики трансфера : BT.709
Коэффициенты матрицы : BT.709
Аудио #1
Идентификатор : 2
Формат : DTS
Формат/Информация : Digital Theater Systems
Режим : 16
Параметр Endianness формата : Big
Идентификатор кодека : A_DTS
Продолжительность : 1 ч. 49 м.
Вид битрейта : Постоянный
Битрейт : 1510 Кбит/сек
Каналы : 6 каналов
Расположение каналов : Front: L C R, Side: L R, LFE
Частота : 48,0 КГц
Битовая глубина : 16 бит
Метод сжатия : С потерями
Размер потока : 1,16 Гбайт (27%)
Язык : Russian
Default : Да
Forced : Нет
Аудио #2
Идентификатор : 3
Формат : AC-3
Формат/Информация : Audio Coding 3
Расширение режима : CM (complete main)
Параметр Endianness формата : Big
Идентификатор кодека : A_AC3
Продолжительность : 1 ч. 49 м.
Вид битрейта : Постоянный
Битрейт : 384 Кбит/сек
Каналы : 6 каналов
Расположение каналов : Front: L C R, Side: L R, LFE
Частота : 48,0 КГц
Битовая глубина : 16 бит
Метод сжатия : С потерями
Размер потока : 301 Мбайт (7%)
Заголовок : Audio_Track_PublicHD
Язык : английский
Default : Нет
Forced : Нет
Меню
00:00:00.000 : en:1
00:04:08.000 : en:2
00:11:15.000 : en:3
00:19:47.000 : en:4
00:24:22.000 : en:5
00:29:57.000 : en:6
00:37:04.000 : en:7
00:42:27.000 : en:8
00:46:47.000 : en:9
00:54:47.000 : en:10
01:01:28.000 : en:11
01:08:36.000 : en:12
01:14:06.000 : en:13
01:20:52.000 : en:14
01:31:32.000 : en:15
01:39:04.000 : en:16

Скриншоты

Скачать

Скачать торрент!

Как скачивать? · Что такое торрент? · Рейтинг и ограничения

Сайт не распространяет и не хранит электронные версии произведений, а лишь предоставляет доступ к создаваемому пользователями каталогу ссылок на торрент-файлы, которые содержат только списки хеш-сумм

[Профиль] [ЛС]
Показать сообщения:    
Ответить на тему

Текущее время: Сегодня 07:58

Часовой пояс: GMT + 4



Вы не можете начинать темы
Вы не можете отвечать на сообщения
Вы не можете редактировать свои сообщения
Вы не можете удалять свои сообщения
Вы не можете голосовать в опросах
Вы не можете прикреплять файлы к сообщениям
Вы не можете скачивать файлы